Ссылка на приватное зеркало нашего сайта всего за 1$. Внимание количество ограничено!!!

2 сезон

iTunes

1 сезон

1

2 сезон

2 сезон

iTunes

1 сезон

RePack

30

Ultimate

ВАЖНО

ИГРА 18+

pack

RePack

MK11
pack

Забери бонус

RePack

jed

!!Акция!!

Alien_Rage

RePack

fifa19

RePack

Assassins Creed: Odyssey

RePack

NEED FOR SPEED™ PAYBACK

4 сезон

9 сезон

Бесстыжие 9 сезон

Все сериалы

все сериалы на PB.wtf

RePack

FAR CRY 5
  

Сплит / Расстройство личности / Split (М. Найт Шьямалан) [2016, ужасы, триллер, BDRemux 1080p] DUB + MVO + 3xAVO pb.wtf

Сплит через торрент pb.wtf

Размер: 41.52 GB | Добавлен: 2 года 7 мес. назад | Торрент скачан:37 раз
Скачать  

04-04-2018 13:48 Сплит Скачать торрент  

Сплит / Расстройство личности / Split«Внутри Кевина живут 23 личности. Вскоре еще одна явит себя миру»
Год выпуска: 2016
Страна: Япония, США
Жанр: ужасы, триллер
Продолжительность: 01:57:07
Перевод: Дублированный, Любительский многоголосый, авторский
Субтитры: Русские, английские
Режиссер: М. Найт Шьямалан
В ролях:

Джеймс МакЭвой, Аня Тейлор-Джой, Бетти Бакли, Хейли Лу Ричардсон, Джессика Сула, Иззи Коффи, Брэд Уильям Хенке, Себастьян Арселус, Нил Хафф, Уки Вашингтон (News Anchor), Энн Вуд, Роберт Майкл Келли (Joe)
Описание:
Cредь бела дня с многолюдной парковки незнакомец похищает трёх школьниц. Они приходят в себя в закрытом помещении, а в душе владельца таятся 23 лика страха. Сменяя друг друга, личности ведут обычную для них жизнь - работают и ходят к психотерапевту, периодически напоминая пленницам, что они дожидаются 24-ю личность, которая скоро явит себя миру.
Рейтинг:

MPAA: PG-13 - Детям до 13 лет просмотр не желателен
Качество: BDRemux 1080p
Формат: MKV
Видео: MPEG-4 AVC, 34.8 Mбит/с, 1920x1080, 23.976 Кадр/с
Аудио 1: Русский DTS 5.1, 768 Кбит/с - Дубляж
Аудио 2: Русский DTS 5.1, 1510 Кбит/с - Любительский многоголосый ("Paradox" & Omskbird records)
Аудио 3: Русский DTS-HD MA 5.1, 3401 Кбит/с - Авторский (Гаврилов)
Аудио 4: Русский DTS-HD MA 5.1, 3402 Кбит/с - Авторский (Сербин)
Аудио 5: Русский DTS-HD MA 5.1, 3397 Кбит/с - Авторский (Есарев)
Аудио 6: Английский DTS-HD MA 5.1, 3408 Кбит/с - Оригинал
Навигация по главам: есть
Общее
Уникальный идентификатор : 250018183421900774975904467537989363492 (0xBC17C027EF431CA58F1BB143F2566724)
Полное имя : D:\РЕМУКС!!!!!\Сплит (Расстройство личности).BDRemux.mkv
Формат : Matroska
Версия формата : Version 4 / Version 2
Размер файла : 41,5 Гбайт
Продолжительность : 1 ч. 57 м.
Режим общего битрейта : Переменный
Общий поток : 50,7 Мбит/сек
Название фильма : Сплит (Расстройство личности).BDRemux.thx:SPOMOPS
Дата кодирования : UTC 2018-04-04 11:24:38
Программа кодирования : mkvmerge v8.3.0 ('Over the Horizon') 64bit
Библиотека кодирования : libebml v1.3.1 + libmatroska v1.4.2
Обложка : Yes
Attachments : cover.jpg

Видео
Идентификатор : 1
Формат : AVC
Формат/Информация : Advanced Video Codec
Профиль формата : High@L4.1
Настройки формата : CABAC / 4 Ref Frames
Параметр CABAC формата : Да
Параметр RefFrames формата : 4 кадра
Идентификатор кодека : V_MPEG4/ISO/AVC
Продолжительность : 1 ч. 57 м.
Вид битрейта : Переменный
Битрейт : 34,8 Мбит/сек
Максимальный битрейт : 37,0 Мбит/сек
Ширина : 1920 пикселей
Высота : 1080 пикселей
Соотношение сторон : 16:9
Режим частоты кадров : Постоянный
Частота кадров : 23,976 (24000/1001) кадра/сек
Цветовое пространство : YUV
Субдискретизация насыщенности : 4:2:0
Битовая глубина : 8 бит
Тип развёртки : Прогрессивная
Бит/(Пиксели*Кадры) : 0.701
Размер потока : 28,5 Гбайт (69%)
Язык : English
Default : Да
Forced : Нет

Аудио #1
Идентификатор : 2
Формат : DTS
Формат/Информация : Digital Theater Systems
Идентификатор кодека : A_DTS
Продолжительность : 1 ч. 57 м.
Вид битрейта : Постоянный
Битрейт : 768 Кбит/сек
Каналы : 6 каналов
Расположение каналов : Front: L C R, Side: L R, LFE
Частота : 48,0 КГц
Частота кадров : 93,750 кадра/сек (512 SPF)
Битовая глубина : 24 бит
Метод сжатия : С потерями
Размер потока : 643 Мбайт (2%)
Заголовок : Русский - Дубляж
Язык : Russian
Default : Да
Forced : Нет

Аудио #2
Идентификатор : 3
Формат : DTS
Формат/Информация : Digital Theater Systems
Идентификатор кодека : A_DTS
Продолжительность : 1 ч. 57 м.
Вид битрейта : Постоянный
Битрейт : 1510 Кбит/сек
Каналы : 6 каналов
Расположение каналов : Front: L C R, Side: L R, LFE
Частота : 48,0 КГц
Частота кадров : 93,750 кадра/сек (512 SPF)
Битовая глубина : 24 бит
Метод сжатия : С потерями
Размер потока : 1,24 Гбайт (3%)
Заголовок : Русский - ПМ ("Paradox" & Omskbird records)
Язык : Russian
Default : Нет
Forced : Нет

Аудио #3
Идентификатор : 4
Формат : DTS
Формат/Информация : Digital Theater Systems
Профиль формата : MA / Core
Идентификатор кодека : A_DTS
Продолжительность : 1 ч. 57 м.
Вид битрейта : Переменный / Постоянный
Битрейт : 3401 Кбит/сек / 1509 Кбит/сек
Каналы : 6 каналов
Расположение каналов : Front: L C R, Side: L R, LFE
Частота : 48,0 КГц
Частота кадров : 93,750 кадра/сек (512 SPF)
Битовая глубина : 24 бит
Метод сжатия : Без потерь / Lossy
Размер потока : 2,78 Гбайт (7%)
Заголовок : Русский АП (Гаврилов)
Язык : Russian
Default : Нет
Forced : Нет

Аудио #4
Идентификатор : 5
Формат : DTS
Формат/Информация : Digital Theater Systems
Профиль формата : MA / Core
Идентификатор кодека : A_DTS
Продолжительность : 1 ч. 57 м.
Вид битрейта : Переменный / Постоянный
Битрейт : 3402 Кбит/сек / 1509 Кбит/сек
Каналы : 6 каналов
Расположение каналов : Front: L C R, Side: L R, LFE
Частота : 48,0 КГц
Частота кадров : 93,750 кадра/сек (512 SPF)
Битовая глубина : 24 бит
Метод сжатия : Без потерь / Lossy
Размер потока : 2,78 Гбайт (7%)
Заголовок : Русский - АП (Сербин)
Язык : Russian
Default : Нет
Forced : Нет

Аудио #5
Идентификатор : 6
Формат : DTS
Формат/Информация : Digital Theater Systems
Профиль формата : MA / Core
Идентификатор кодека : A_DTS
Продолжительность : 1 ч. 57 м.
Вид битрейта : Переменный / Постоянный
Битрейт : 3397 Кбит/сек / 1509 Кбит/сек
Каналы : 6 каналов
Расположение каналов : Front: L C R, Side: L R, LFE
Частота : 48,0 КГц
Частота кадров : 93,750 кадра/сек (512 SPF)
Битовая глубина : 24 бит
Метод сжатия : Без потерь / Lossy
Размер потока : 2,78 Гбайт (7%)
Заголовок : Русский АП (Есарев)
Язык : Russian
Default : Нет
Forced : Нет

Аудио #6
Идентификатор : 7
Формат : DTS
Формат/Информация : Digital Theater Systems
Профиль формата : MA / Core
Идентификатор кодека : A_DTS
Продолжительность : 1 ч. 57 м.
Вид битрейта : Переменный / Постоянный
Битрейт : 3408 Кбит/сек / 1509 Кбит/сек
Каналы : 6 каналов
Расположение каналов : Front: L C R, Side: L R, LFE
Частота : 48,0 КГц
Частота кадров : 93,750 кадра/сек (512 SPF)
Битовая глубина : 24 бит
Метод сжатия : Без потерь / Lossy
Размер потока : 2,79 Гбайт (7%)
Заголовок : Английский
Язык : English
Default : Нет
Forced : Нет

Текст #1
Идентификатор : 8
Формат : UTF-8
Идентификатор кодека : S_TEXT/UTF8
Идентификатор кодека/Информация : UTF-8 Plain Text
Продолжительность : 1 ч. 52 м.
Битрейт : 0 бит/сек
ElementCount : 18
Размер потока : 460 байт (0%)
Заголовок : Русские - Forced
Язык : Russian
Default : Да
Forced : Нет

Текст #2
Идентификатор : 9
Формат : UTF-8
Идентификатор кодека : S_TEXT/UTF8
Идентификатор кодека/Информация : UTF-8 Plain Text
Продолжительность : 1 ч. 56 м.
Битрейт : 58 бит/сек
ElementCount : 1226
Размер потока : 49,4 Кбайт (0%)
Заголовок : Русские
Язык : Russian
Default : Нет
Forced : Нет

Текст #3
Идентификатор : 10
Формат : UTF-8
Идентификатор кодека : S_TEXT/UTF8
Идентификатор кодека/Информация : UTF-8 Plain Text
Продолжительность : 1 ч. 53 м.
Битрейт : 43 бит/сек
ElementCount : 1274
Размер потока : 36,3 Кбайт (0%)
Заголовок : Английские
Язык : English
Default : Нет
Forced : Нет

Текст #4
Идентификатор : 11
Формат : UTF-8
Идентификатор кодека : S_TEXT/UTF8
Идентификатор кодека/Информация : UTF-8 Plain Text
Продолжительность : 1 ч. 51 м.
Битрейт : 48 бит/сек
ElementCount : 1397
Размер потока : 39,3 Кбайт (0%)
Заголовок : Английские - SDH
Язык : English
Default : Нет
Forced : Нет

Текст #5
Идентификатор : 12
Формат : UTF-8
Идентификатор кодека : S_TEXT/UTF8
Идентификатор кодека/Информация : UTF-8 Plain Text
Продолжительность : 1 ч. 53 м.
Битрейт : 57 бит/сек
ElementCount : 1399
Размер потока : 47,8 Кбайт (0%)
Заголовок : Английские - SDH (Colored)
Язык : English
Default : Нет
Forced : Нет

Меню
00:00:00.000 : en:Chapter 1
00:06:08.451 : en:Chapter 2
00:14:19.024 : en:Chapter 3
00:20:49.373 : en:Chapter 4
00:24:14.536 : en:Chapter 5
00:28:37.048 : en:Chapter 6
00:35:47.979 : en:Chapter 7
00:42:35.386 : en:Chapter 8
00:49:06.068 : en:Chapter 9
00:54:09.412 : en:Chapter 10
01:00:24.495 : en:Chapter 11
01:06:22.561 : en:Chapter 12
01:12:31.221 : en:Chapter 13
01:19:35.771 : en:Chapter 14
01:25:25.829 : en:Chapter 15
01:29:16.559 : en:Chapter 16
01:34:08.225 : en:Chapter 17
01:40:45.998 : en:Chapter 18
01:47:40.287 : en:Chapter 19
01:52:26.740 : en:Chapter 20
pb.wtf



Скачать Сплит через торрент http://i103.fastpic.ru/big/2018/0404/9f/cc0477af42d02f386d5c25fe198b7a9f.png Скачать фильм Сплит через торрент бесплантно в хорошем качестве Описание: Cредь бела дня с многолюдной парковки незнакомец похищает трёх школьниц. Они приходят в себя в закрытом помещении, а в душе ... 7 10 3
Info! Золотая раздача, скачанное не засчитывается.
Торрент: Зарегистрирован [2018-04-04 13:48] · скачан: 37 раз
Статус: √ проверено
Размер: 41.52 GB
Как cкачать? Как скачать Сплит через торрент | qTorrent



Последний раз редактировалось: sheker187 (2018-04-04 18:05), всего редактировалось 1 раз

28-11-2019 20:33  

Отключить всю рекламу на сайте

04-04-2018 14:06 Сплит Скачать торрент  

Профессиональный многоголосый ("Paradox" & Omskbird records) - Любительскийpb.wtf



13-08-2019 11:59 Сплит Скачать торрент  

Блестящий фильм! Пожалуй лучший в трилогии.pb.wtf



    Дорогой пользователь! Огромная просьба, поблагодарите релизера, оцените раздачу и оставьте свои комментарий, если Вы скачали Сплит через торрент бесплатно! Внесите свою лепту в развитие PiratBit!
    Комментировать посты могут только пользователи прошедшие не сложную регистрацию
    Показать сообщения:    

    Сплит через торрент
    Скачать бесплатно Сплит
    Сплит скачать торрент
    Сплит смотреть онлайн
    Cкачать фильм Сплит бесплатно
    Сплит скачать торрент в хорошем качестве
    Сплит смотреть онлайн бесплатно в хорошем качестве


    Вы не можете начинать темы
    Вы не можете отвечать на сообщения
    Вы не можете редактировать свои сообщения
    Вы не можете удалять свои сообщения
    Вы не можете голосовать в опросах
    Вы не можете прикреплять файлы к сообщениям
    Вы можете скачивать файлы