2 сезон

iTunes

MVO

1

2 сезон

iTunes

iTunes

1 сезон

RePack

30

Новинка

ВАЖНО

ИГРА 18+

pack

RePack

MK11
pack

Легкие деньги

RePack

jed

RePack

fifa19

RePack

RDR2

RePack

NEED FOR SPEED™ PAYBACK

4 сезон

9 сезон

Бесстыжие 9 сезон

Все сериалы

все сериалы на PB.wtf

RePack

FAR CRY 5

Anonymous, добрый вечер, мы не успеваем собрать деньги на оплату серверов за декабрь и январь, помогите нам пожалуйста в это трудное время. В качестве благодарности мы отключим Вам всю рекламу на сайте (укажите свой ник в строку Ваше имя)!

×
  
Magnet ссылка

Пила 8 / Jigsaw (Майкл Спириг, Питер Спириг) [2017 г., Ужасы, Триллер, Криминал, Детектив, BDRip-AVC, Дубляж iTunes] pb.wtf

Пила 8 через торрент pb.wtf

Раздают: 1 [ 0 KB/s ]
Размер: 2.19 GB | Добавлен: 2 года 9 мес. назад | Торрент скачан:144 раза
Скачать  

04-04-2018 18:42 Пила 8 Скачать торрент  

Пила 8 /
Jigsaw
Год выпуска: 2017
Страна: США, Канада
Жанр: Ужасы, Триллер, Криминал, Детектив
Продолжительность: 01:31:57
Перевод: Дубляж iTunes
Субтитры: отсутствуют

Режиссер: Майкл Спириг, Питер Спириг

Премьера в мире: 26 октября 2017

rating

В ролях: Мэтт Пассмор, Тобин Белл, Каллум Кит Ренни, Ханна Андерсон, Кле Беннетт, Лора Вандервурт, Пол Браунштейн, Мандела Ван Пиблз, Бриттани Аллен, Джозиа Блэк и др.

Описание: В городе обнаруживают несколько тел, обладатели которых встретили определенно не лучший конец. Все улики указывают на одного человека: Джона Крамера. Но как это возможно? Человек, известный как Пила, мертв уже более десяти лет. Неужели все-таки нашелся тот, кто рискнул подобрать мантию жестокого маньяка?

Качество: BDRip-AVC
Формат: MKV
Видео кодек: H.264
Аудио кодек: AC3
Видео: 1152х488 (2.35:1), 3022 kbps, 0.224 bit/pixel
Аудио#1: Русский: AC3, 6 ch, 384 kbps - Дубляж (iTunes)
Релиз от: winchester00100010
General
Unique ID : 213131994299518375018343530702096293941 (0xA057BA9F465C031280D802C69B4BE035)
Complete name : D:\Торрент файлы раздач вместе с фильмами\Jigsaw.2017.BDRip-AVC.mkv
Format : Matroska
Format version : Version 2
File size : 2.19 GiB
Duration : 1 h 31 min
Overall bit rate : 3 403 kb/s
Encoded date : UTC 2018-04-04 17:58:16
Writing application : mkvmerge v7.8.0 ('River Man') 32bit built on Apr 3 2015 12:11:22
Writing library : libebml v1.3.1 + libmatroska v1.4.2

Video
ID : 1
Format : AVC
Format/Info : Advanced Video Codec
Format profile : High@L4.1
Format settings : CABAC / 12 Ref Frames
Format settings, CABAC : Yes
Format settings, ReFrames : 12 frames
Codec ID : V_MPEG4/ISO/AVC
Duration : 1 h 31 min
Bit rate : 3 022 kb/s
Width : 1 152 pixels
Height : 488 pixels
Display aspect ratio : 2.35:1
Frame rate mode : Constant
Frame rate : 23.976 (24000/1001) FPS
Color space : YUV
Chroma subsampling : 4:2:0
Bit depth : 8 bits
Scan type : Progressive
Bits/(Pixel*Frame) : 0.224
Stream size : 1.90 GiB (87%)
Writing library : x264 core 146 r2538 121396c
Encoding settings : cabac=1 / ref=12 / deblock=1:-3:-3 / analyse=0x3:0x113 / me=umh / subme=10 / psy=1 / psy_rd=1.00:0.00 / mixed_ref=1 / me_range=32 / chroma_me=1 / trellis=2 / 8x8dct=1 / cqm=0 / deadzone=21,11 / fast_pskip=0 / chroma_qp_offset=-2 / threads=12 / lookahead_threads=2 / sliced_threads=0 / nr=0 / decimate=0 / interlaced=0 / bluray_compat=0 / constrained_intra=0 / bframes=8 / b_pyramid=2 / b_adapt=2 / b_bias=0 / direct=3 / weightb=1 / open_gop=0 / weightp=2 / keyint=240 / keyint_min=23 / scenecut=40 / intra_refresh=0 / rc_lookahead=40 / rc=2pass / mbtree=0 / bitrate=3022 / ratetol=1.0 / qcomp=0.60 / qpmin=0 / qpmax=69 / qpstep=4 / cplxblur=20.0 / qblur=0.5 / vbv_maxrate=14000 / vbv_bufsize=14000 / nal_hrd=none / filler=0 / ip_ratio=1.40 / pb_ratio=1.30 / aq=1:1.00
Default : Yes
Forced : No

Audio
ID : 2
Format : AC-3
Format/Info : Audio Coding 3
Codec ID : A_AC3
Duration : 1 h 31 min
Bit rate mode : Constant
Bit rate : 384 kb/s
Channel(s) : 6 channels
Channel positions : Front: L C R, Side: L R, LFE
Sampling rate : 48.0 kHz
Frame rate : 31.250 FPS (1536 SPF)
Bit depth : 16 bits
Compression mode : Lossy
Stream size : 253 MiB (11%)
Service kind : Complete Main
Default : Yes
Forced : No

pb.wtf



Скачать Пила 8 через торрент https://a.radikal.ru/a01/1804/77/449edde719bd.jpg Скачать фильм Пила 8 через торрент бесплантно в хорошем качестве Описание: В городе обнаруживают несколько тел, обладатели которых встретили определенно не лучший конец. Все улики указывают на одного ... 10 10 3
Info! Золотая раздача, скачанное не засчитывается.
Торрент: Зарегистрирован [2018-04-04 18:42] · скачан: 144 раз
Статус: √ проверено
Размер: 2.19 GB
Как cкачать? Как скачать Пила 8 через торрент | UTorrent

% Раздел Тема Автор DL S | L
Фильмы [HD 720p, 1080p] (Хороший звук DUB, MVO) [ 3.31 GB ] Пила 8 / Jigsaw [2017 BDRip-HEVC 1080p ] bober100 Скачать
1 | 0
Фильмы 2017 [DVDrip, WEB-DLRip, HDrip] (DUB, MVO) [ 1.42 GB ] Пила 8 / Jigsaw [2017 BDRip] bober100 Скачать
2 | 0
Фильмы 2017 [DVDrip, WEB-DLRip, HDrip] (DUB, MVO) [ 1.47 GB ] Пила 8 / Jigsaw [2017 HDRip-AVC ] winchester00100010 Скачать
1 | 0
Фильмы 2017 [DVDrip, WEB-DLRip, HDrip] (DUB, MVO) [ 746 MB ] Пила 8 / Jigsaw [2017 HDRip] bober100 Скачать
1 | 0
Ultra HD (UHD: 2K, 4K, 8K) — видео сверхвысокой чёткости [ 50.97 GB ] Пила 8 / Jigsaw [2017 UHD BDRemux 2160p] AVO [А. Дольский] +DUB [Line] + bober100 Скачать
1 | 0
T Фильмы [HD 720p, 1080p] (Хороший звук DUB, MVO) [ 6.92 GB ] Пила 8 / Jigsaw [2017 BDRip 1080p] 2x killermax2013 Скачать
1 | 0
Фильмы 2017 [DVDrip, WEB-DLRip, HDrip] (DUB, MVO) [ 1.42 GB ] Пила 8 / Jigsaw [2017 BDRip] - Twi7ter Скачать
1 | 0

28-11-2019 20:33  

Отключить всю рекламу на сайте

    Дорогой пользователь! Огромная просьба, поблагодарите релизера, оцените раздачу и оставьте свои комментарий, если Вы скачали Пила 8 через торрент бесплатно! Внесите свою лепту в развитие PiratBit!
    Комментировать посты могут только пользователи прошедшие не сложную регистрацию
    Показать сообщения:    

    Пила 8 через торрент
    Скачать бесплатно Пила 8
    Пила 8 скачать торрент
    Пила 8 смотреть онлайн
    Cкачать фильм Пила 8 бесплатно
    Пила 8 скачать торрент в хорошем качестве
    Пила 8 смотреть онлайн бесплатно в хорошем качестве


    Вы не можете начинать темы
    Вы не можете отвечать на сообщения
    Вы не можете редактировать свои сообщения
    Вы не можете удалять свои сообщения
    Вы не можете голосовать в опросах
    Вы не можете прикреплять файлы к сообщениям
    Вы можете скачивать файлы