Ссылка на приватное зеркало всего за 1$. Внимание количество ограничено!!!

OK

1+1

iTunes

мы

OK

1

WEB-DLRip

Джокер

Пифагор

Ведьмак / The Witcher сериал

iTunes

ПШазам

ОК

Оно 2

iTunes

30
pack

Вам бонус

ВАЖНО

!!Акция!!

Alien_RageХит недели

RePack

Resident Evil 21

ИГРА 18+

pack

RePack

jed

RePack

fifa19

RePack

Assassins Creed: Odyssey

RePack

NEED FOR SPEED™ PAYBACK

4 сезон

9 сезон

Бесстыжие 9 сезон

Все сериалы

все сериалы на PB.wtf

RePack

FAR CRY 5
  

Возмездие / Retribution (Дэвид Бисфам) [2016, триллер, драма, криминал, WEB-DL 720p] MVO [AlphaProject] pb.wtf

Возмездие через торрент pb.wtf

Размер: 2.88 GB | Добавлен: 1 год 9 мес. назад | Торрент скачан:43 раза
Скачать  

04-04-2018 19:11 Возмездие Скачать торрент  

Возмездие / RetributionГод выпуска: 2016
Страна: Великобритания
Жанр: триллер, драма, криминал
Продолжительность: 01:24:08
Перевод: Любительский (многоголосый) | AlphaProject
Субтитры: отсутствуют

Режиссер: Дэвид Бисфам

rating

В ролях:

Дэн Ричардсон, Ченгиз Дервис, Хью Куарши, Аманда Милинг, Эндрю Миллс, Шон Кронин, Гай Генри, Боб Баррет, Майкл Томсон

Описание:

Главный герой - отец девочки-подростка, которая была жестоко изнасилована сыном его друга. В безумном приступе ярости и боли он по всему Лондону ищет ее обидчика, сумевшего избежать правосудия, чтобы собственноручно заставить его ответить за совершенное преступление.

Качество: WEB-DL 720p
Формат: MKV

Видео: 4522 Кбит/с, 1280x544
Аудио#1: AC3, 2 ch, 384 Кбит/с
скриншот  скриншот  скриншот  

Общее
Уникальный идентификатор : 176198759284032548306002562418807828672 (0x848EA58BF64183EA8DBA805582D670C0)
Полное имя : D:\Retribution.2017.Pa.WEB-DL.72Op_KOSHARA.mkv
Формат : Matroska
Версия формата : Version 2
Размер файла : 2,88 Гбайт
Продолжительность : 1 ч. 24 м.
Режим общего битрейта : Переменный
Общий поток : 4908 Кбит/сек
Дата кодирования : UTC 2018-04-04 08:21:51
Программа кодирования : mkvmerge v8.3.0 ('Over the Horizon') 64bit
Библиотека кодирования : libebml v1.3.1 + libmatroska v1.4.2

Видео
Идентификатор : 1
Формат : AVC
Формат/Информация : Advanced Video Codec
Профиль формата : High@L4.1
Параметр CABAC формата : Да
Параметр RefFrames формата : 4 кадра
Идентификатор кодека : V_MPEG4/ISO/AVC
Продолжительность : 1 ч. 24 м.
Вид битрейта : Переменный
Битрейт : 4522 Кбит/сек
Максимальный битрейт : 5000 Кбит/сек
Ширина : 1280 пикселей
Высота : 544 пикселя
Соотношение сторон : 2,35:1
Режим частоты кадров : Постоянный
Частота кадров : 23,976 (24000/1001) кадра/сек
Стандарт вещания : Component
Цветовое пространство : YUV
Субдискретизация насыщенности : 4:2:0
Битовая глубина : 8 бит
Тип развёртки : Прогрессивная
Бит/(Пиксели*Кадры) : 0.265
Размер потока : 2,60 Гбайт (90%)
Default : Да
Forced : Нет
Цветовой диапазон : Limited
Основные цвета : BT.709
Характеристики трансфера : BT.709
Коэффициенты матрицы : BT.709

Аудио
Идентификатор : 2
Формат : AC-3
Формат/Информация : Audio Coding 3
Расширение режима : CM (complete main)
Параметр Endianness формата : Big
Идентификатор кодека : A_AC3
Продолжительность : 1 ч. 24 м.
Вид битрейта : Постоянный
Битрейт : 384 Кбит/сек
Каналы : 2 канала
Расположение каналов : Front: L R
Частота : 48,0 КГц
Частота кадров : 31,250 кадров/сек (1536 spf)
Метод сжатия : С потерями
Размер потока : 231 Мбайт (8%)
Default : Да
Forced : Нет

pb.wtf



Скачать Возмездие через торрент http://img12.lostpic.net/2018/04/04/d605445c4e7c7f451ea4e21eb09f47a6.jpg Скачать фильм Возмездие через торрент бесплантно в хорошем качестве Описание: Главный герой - отец девочки-подростка, которая была жестоко изнасилована сыном его друга. В безумном приступе ярости и боли он ... 10 10 4
Торрент: Зарегистрирован [2018-04-04 19:11] · скачан: 43 раз
Статус: T временная
Размер: 2.88 GB
Как cкачать? Как скачать Возмездие через торрент | qTorrent

% Раздел Тема Автор DL S | L
T Фильмы (мультфильмы) cо спонсором показа (Новинки AVI/MKV) [ 1.37 GB ] Возмездие / Retribution [2016 WEB-DLRip] MVO [AlphaProject] bober100 Скачать
1 | 0
R.G. Resident & PiratVoice - Фильмы, Видео [ 1.46 GB ] Обитель зла: Возмездие / Resident Evil: Retribution [2012 HDRip ] от R.G. Resident Dean24 Скачать
1 | 1
Фильмы [HD 720p, 1080p] (Хороший звук DUB, MVO) [ 10.41 GB ] Обитель зла: Возмездие / Resident Evil: Retribution [2012 BDRip 1080p DUB лицензия] Зайчина Скачать
1 | 0
3D Фильмы [ 9.79 GB ] Обитель зла: Возмездие / Resident Evil: Retribution [2012 BDRip 3D 1080p DUB лицензия] Горизонтальная анаморфная стереопара Userman4ik Скачать
1 | 0
Фильмы с авторской озвучкой [ 1.46 GB ] Обитель Зла: Возмездие / Resident Evil: Retribution [2012 фантастический зомби HDRip] [AVO] killermax2013 Скачать
1 | 0
Фильмы [HD 720p, 1080p] (Хороший звук DUB, MVO) [ 5.74 GB ] Обитель зла: Возмездие / Resident Evil: Retribution [2012 BDRip 720p DUB лицензия] Зайчина Скачать
1 | 0
Фильмы [HD 720p, 1080p] (Хороший звук DUB, MVO) [ 6.8 GB ] Обитель зла: Возмездие / Resident Evil: Retribution [2012 BDRip 1080p DUB лицензия] Userman4ik Скачать
1 | 0

28-11-2019 20:33  

Отключить всю рекламу на сайте

    Дорогой пользователь! Огромная просьба, поблагодарите релизера, оцените раздачу и оставьте свои комментарий, если Вы скачали Возмездие через торрент бесплатно! Внесите свою лепту в развитие PiratBit!
    Комментировать посты могут только пользователи прошедшие не сложную регистрацию
    Показать сообщения:    

    Возмездие через торрент
    Скачать бесплатно Возмездие
    Возмездие скачать торрент
    Возмездие смотреть онлайн
    Cкачать фильм Возмездие бесплатно
    Возмездие скачать торрент в хорошем качестве
    Возмездие смотреть онлайн бесплатно в хорошем качестве


    Вы не можете начинать темы
    Вы не можете отвечать на сообщения
    Вы не можете редактировать свои сообщения
    Вы не можете удалять свои сообщения
    Вы не можете голосовать в опросах
    Вы не можете прикреплять файлы к сообщениям
    Вы можете скачивать файлы