Marvel's Avengers Deluxe Edition (супер цена) 159р. Внимание количество ограничено!!!

2 сезон

iTunes

iTunes

1

iTunes

iTunes

iTunes

WEBRip

iTunes

30
pack

Новость дня

ВАЖНО

!!Акция!!

Alien_RageХит недели

RePack

Horizon Zero Dawn

ИГРА 18+

pack

RePack

jed

!!Акция!!

Alien_Rage

RePack

fifa19

RePack

Assassins Creed: Odyssey

RePack

NEED FOR SPEED™ PAYBACK

4 сезон

9 сезон

Бесстыжие 9 сезон

Все сериалы

все сериалы на PB.wtf

RePack

FAR CRY 5
  

Эйла / Ayla (Elias) [2017 г., Драма, ужасы, WEB-DLRip, Любительский (многоголосый)(Синема УС)] pb.wtf

Эйла через торрент pb.wtf

Размер: 1.3 GB | Добавлен: 2 года 5 мес. назад | Торрент скачан:54 раза
Скачать  

05-04-2018 03:39 Эйла Скачать торрент  

Эйла / Ayla
Год выпуска: 2017
Страна: США
Жанр: Драма, ужасы
Продолжительность: 01:25:43
Перевод: Любительский (многоголосый)(Синема УС)
Субтитры: Отсутствуют

Режиссер: Elias

rating

В ролях: Николас Уайлдер, Тристан Риск, Ди Уоллес-Стоун, Д Анджело Мидили, Билл Оберст мл., Эндрю Сенсениг, Дарлен Селлерс, Гари Ли Винсент

Описание: Мужчина, никак не желающий смириться со смертью 4-летней сестры, 30 лет спустя вызывает её обратно к жизни, но уже взрослой женщиной.

Доп. информация: Присутствуют вставки текстовой рекламы

Качество: WEB-DLRip
Формат: AVI
Видео кодек: XviD
Аудио кодек: AC3
Видео: XviD, 720x352, ~1775 Kbps
Аудио#1: AC-3, 2 ch, 384 Kbps
скриншот   скриншот   скриншот   скриншот  

Общее
Полное имя : E:\NNM\Эйла\Ayla 2017 WEB-DLRip.avi
Формат : AVI
Формат/Информация : Audio Video Interleave
Профиль формата : OpenDML
Размер файла : 1,30 Гбайт
Продолжительность : 1 ч. 25 м.
Общий поток : 2171 Кбит/сек

Видео
Идентификатор : 0
Формат : MPEG-4 Visual
Профиль формата : Advanced Simple@L5
Настройки формата : BVOP2 / Custom Matrix
Параметр BVOP формата : 2
Параметр QPel формата : Нет
Параметр GMC формата : Без точки перехода
Параметр матрицы формата : Выборочная
Идентификатор кодека : XVID
Идентификатор кодека/Подсказка : XviD
Продолжительность : 1 ч. 25 м.
Битрейт : 1775 Кбит/сек
Ширина : 720 пикселей
Высота : 352 пикселя
Соотношение сторон : 2,045
Частота кадров : 23,976 (24000/1001) кадра/сек
Цветовое пространство : YUV
Субдискретизация насыщенности : 4:2:0
Битовая глубина : 8 бит
Тип развёртки : Прогрессивная
Метод сжатия : С потерями
Бит/(Пиксели*Кадры) : 0.292
Размер потока : 1,06 Гбайт (82%)
Библиотека кодирования : XviD 1.2.1 (UTC 2008-12-04)

Аудио
Идентификатор : 1
Формат : AC-3
Формат/Информация : Audio Coding 3
Идентификатор кодека : 2000
Продолжительность : 1 ч. 25 м.
Вид битрейта : Постоянный
Битрейт : 384 Кбит/сек
Каналы : 2 канала
Расположение каналов : Front: L R
Частота : 48,0 КГц
Частота кадров : 31,250 кадров/сек (1536 SPF)
Битовая глубина : 16 бит
Метод сжатия : С потерями
Размер потока : 235 Мбайт (18%)
Выравнивание : Соединение по промежуткам
Продолжительность промежутка : 32 мс. (0,77 видеокадр)
ServiceKind/String : Complete Main

pb.wtf



Скачать Эйла через торрент http://i104.fastpic.ru/big/2018/0405/d6/f937e494c4e5b5c61a2b60ed3a2b49d6.jpg Скачать фильм Эйла через торрент бесплантно в хорошем качестве Описание: Мужчина, никак не желающий смириться со смертью 4-летней сестры, 30 лет спустя вызывает её обратно к жизни, но уже взрослой ... 5.8 10 5
Торрент: Зарегистрирован [2018-04-05 03:39] · скачан: 54 раз
Статус: T временная
Размер: 1.3 GB
Как cкачать? Как скачать Эйла через торрент | qTorrent

28-11-2019 20:33  

Отключить всю рекламу на сайте

05-04-2018 05:27 Эйла Скачать торрент  

проходите мимо шлакpb.wtf



    Дорогой пользователь! Огромная просьба, поблагодарите релизера, оцените раздачу и оставьте свои комментарий, если Вы скачали Эйла через торрент бесплатно! Внесите свою лепту в развитие PiratBit!
    Комментировать посты могут только пользователи прошедшие не сложную регистрацию
    Показать сообщения:    

    Эйла через торрент
    Скачать бесплатно Эйла
    Эйла скачать торрент
    Эйла смотреть онлайн
    Cкачать фильм Эйла бесплатно
    Эйла скачать торрент в хорошем качестве
    Эйла смотреть онлайн бесплатно в хорошем качестве


    Вы не можете начинать темы
    Вы не можете отвечать на сообщения
    Вы не можете редактировать свои сообщения
    Вы не можете удалять свои сообщения
    Вы не можете голосовать в опросах
    Вы не можете прикреплять файлы к сообщениям
    Вы можете скачивать файлы