новый адрес
Ссылка на приватное зеркало всего за 1$. Внимание количество ограничено!!!

iTunes

1+1

iTunes

мы

iTunes

1

iTunes

Чернобыль

iTunes

Ральф против интернета

Лицензия

ПШазам

Лицензия

Оно 2

Лицензия

30
pack

Вам бонус

ВАЖНО

!!Акция!!

Alien_RageХит недели

RePack

Resident Evil 21

ИГРА 18+

pack

RePack

jed

!!Акция!!

Alien_Rage

RePack

fifa19

RePack

Assassins Creed: Odyssey

RePack

NEED FOR SPEED™ PAYBACK

3 сезон

9 сезон

Бесстыжие 9 сезон

Все сериалы

все сериалы на PB.wtf

RePack

FAR CRY 5
Ребята, катастрофически не хватает 1900р. для оплаты серверов за Октябрь (всвязи с блокировками трафик упал в 3 раза), 1-2р., выручайте.
  

Мост перейти нельзя (Никита Курихин, Теодор Вульфович) [1960, СССР, драма, VHSRip от AVP Studio] pb.wtf

Мост перейти нельзя через торрент pb.wtf

Размер: 1.09 GB | Добавлен: 1 год 7 мес. назад | Торрент скачан:10 раз
Скачать  

05-04-2018 06:08 Мост перейти нельзя Скачать торрент  

Мост перейти нельзя
Страна: СССР
Производство: Ленфильм

Жанр: драма
Год выпуска: 1960
Продолжительность: 01:31:53

Перевод: Не требуется
Cубтитры: нет
Оригинальная аудиодорожка: русский

Режиссер: Никита Курихин, Теодор Вульфович

В ролях:
Николай Волков (старший), Лидия Сухаревская, Георгий Шевцов, Григорий Гай, Владимир Казаринов, Юрий Дедович, Владимир Андреев, Ролан Быков, Людмила Макарова, Марина Добровольская, Леонид Наумов...
Об актёрах подробней

Описание:
По пьесе Артура Миллера «Смерть коммивояжера».
Более тридцати лет Вилли Ломен (Николай Волков-старший) прослужил фирме. Ему уже за шестьдесят. Новый молодой владелец “Вагнер и К” без сожаления увольняет старого коммивояжера, утратившего былую хватку. Не оправдывают надежд героя и два его сына, Биф и Хэппи, — не быть им опорой постаревшим отцу и матери... Герою картины остается единственный выход — получить деньги по страховому полису в обмен на жизнь, которая для Ломена утратила всякий смысл.

Исходник: S-VHS
Качество видео: VHSRip
Формат видео: AVI

Видео: 704x528 (4:3), 25,000 кадров/сек, XviD ~ 1497 kbps avg, 0.161 bit/pixel
Аудио: 48 kHz, Dolby Digital AC3 2.0, 192 kbps

Раздача от:
Общее
Полное имя : Most.pereyti.nelzya.1960.VHSRip_[New-team]_by_AVP_Studio.avi
Формат : AVI
Формат/Информация : Audio Video Interleave
Размер файла : 1,09 Гбайт
Продолжительность : 1 ч. 31 м.
Общий поток : 1699 Кбит/сек
Программа кодирования : VirtualDubMod 1.5.10.3 | www.virtualdub-fr.org || (build 2550/release)
Библиотека кодирования : VirtualDubMod build 2550/release

Видео
Идентификатор : 0
Формат : MPEG-4 Visual
Профиль формата : Advanced Simple@L5
Настройки формата : BVOP1 / Custom Matrix
Параметр BVOP формата : 1
Параметр QPel формата : Нет
Параметр GMC формата : Без точки перехода
Параметр матрицы формата : Выборочная
Идентификатор кодека : XVID
Идентификатор кодека/Подсказка : XviD
Продолжительность : 1 ч. 31 м.
Битрейт : 1497 Кбит/сек
Ширина : 704 пикселя
Высота : 528 пикселей
Соотношение сторон : 4:3
Частота кадров : 25,000 кадров/сек
Цветовое пространство : YUV
Субдискретизация насыщенности : 4:2:0
Битовая глубина : 8 бит
Тип развёртки : Прогрессивная
Метод сжатия : С потерями
Бит/(Пиксели*Кадры) : 0.161
Размер потока : 984 Мбайт (88%)
Библиотека кодирования : XviD 73

Аудио
Идентификатор : 1
Формат : AC-3
Формат/Информация : Audio Coding 3
Идентификатор кодека : 2000
Продолжительность : 1 ч. 31 м.
Вид битрейта : Постоянный
Битрейт : 192 Кбит/сек
Каналы : 2 канала
Расположение каналов : Front: L R
Частота : 48,0 КГц
Частота кадров : 31,250 кадров/сек (1536 SPF)
Битовая глубина : 16 бит
Метод сжатия : С потерями
Размер потока : 126 Мбайт (11%)
Выравнивание : Разделение по промежуткам
Продолжительность промежутка : 40 мс. (1,00 видеокадр)
Время предзагрузки промежутка : 500 мс
pb.wtf



Скачать Мост перейти нельзя через торрент http://i1.imageban.ru/out/2018/04/04/4be8ced738e01b53f0c94e90a97ed15d.png Скачать фильм Мост перейти нельзя через торрент бесплантно в хорошем качестве Описание:По пьесе Артура Миллера «Смерть коммивояжера».Более тридцати лет Вилли Ломен (Николай Волков-старший) прослужил фирме. Ему уже за ... 5 10 1
Info! Золотая раздача, скачанное не засчитывается.
Торрент: Зарегистрирован [2018-04-05 06:08] · скачан: 10 раз
Статус: √ проверено
Размер: 1.09 GB
Как cкачать? Как скачать Мост перейти нельзя через торрент | qTorrent

% Раздел Тема Автор DL S | L
Кино СССР [ 1.09 GB ] Мост перейти нельзя [1960 СССР VHSRip-AVC от AVP Studio] AVP Studio Скачать
1 | 0


>> Переходим по ссылке <<
Автоматически подгузится скрипт который настроит ваш браузер на выигрыш!!
После настройки браузера вероятность выигрыша увеличется в 4.1-4,6 раза.
В течение 6 секунд вам откроется настроенный интерфейс казино, с повышенной вероятностью выигрыша.






Отзывы и комментарии о схеме читаем и пишем здесь: ---> Отзывы и комментарии о схеме

Новые благодарочки в телеграм довольных пользователей:
скриншот   скриншот   скриншот   скриншот   скриншот
    Дорогой пользователь! Огромная просьба, поблагодарите релизера, оцените раздачу и оставьте свои комментарий, если Вы скачали Мост перейти нельзя через торрент бесплатно! Внесите свою лепту в развитие PiratBit!
    Комментировать посты могут только пользователи прошедшие не сложную регистрацию
    Показать сообщения:    

    Мост перейти нельзя через торрент
    Скачать бесплатно Мост перейти нельзя
    Мост перейти нельзя скачать торрент
    Мост перейти нельзя смотреть онлайн
    Cкачать фильм Мост перейти нельзя бесплатно
    Мост перейти нельзя скачать торрент в хорошем качестве
    Мост перейти нельзя смотреть онлайн бесплатно в хорошем качестве


    Вы не можете начинать темы
    Вы не можете отвечать на сообщения
    Вы не можете редактировать свои сообщения
    Вы не можете удалять свои сообщения
    Вы не можете голосовать в опросах
    Вы не можете прикреплять файлы к сообщениям
    Вы можете скачивать файлы