Ссылка на приватное зеркало всего за 1$. Внимание количество ограничено!!!

OK

1+1

iTunes

мы

OK

1

WEB-DLRip

Джокер

Пифагор

Ведьмак / The Witcher сериал

iTunes

ПШазам

ОК

Оно 2

iTunes

30
pack

Вам бонус

ВАЖНО

!!Акция!!

Alien_RageХит недели

RePack

Resident Evil 21

ИГРА 18+

pack

RePack

jed

RePack

fifa19

RePack

Assassins Creed: Odyssey

RePack

NEED FOR SPEED™ PAYBACK

4 сезон

9 сезон

Бесстыжие 9 сезон

Все сериалы

все сериалы на PB.wtf

RePack

FAR CRY 5
  

Мадзингер Зэд / Mazinger Z: Infinity (Дзюндзи Симидзу) [2017, аниме, мультфильм, боевик, фантастика, BDRip 720p] MVO [КОЛОБОК] pb.wtf

Мадзингер Зэд через торрент pb.wtf

Размер: 4.07 GB | Добавлен: 1 год 9 мес. назад | Торрент скачан:66 раз
Скачать  

05-04-2018 06:50 Мадзингер Зэд Скачать торрент  

Мадзингер Зэд / Mazinger Z: InfinityГод выпуска: 2017
Страна: Япония
Жанр: аниме, мультфильм, боевик, фантастика
Продолжительность: 01:36:58
Перевод: Любительский (многоголосый) | КОЛОБОК
Субтитры: отсутствуют

Режиссер: Дзюндзи Симидзу

rating

В ролях:

Сётаро Морикубо, Аи Каяно, Сумирэ Уэсака, Тосихико Сэки, Ами Косимидзу, Дзюнпэй Морита, Унсё Исидзука, Кэидзи Фудзивара, Хироюки Миясако, Пак Роми

Описание:

Однажды человечество оказалось на грани гибели из-за злого учёного Докора Хелла и его подпольной империи. Кодзи Кабуто, его суперробот Мадзингер Зэд и их друзья из лаборатории фотонной энергии положили конец разрушительным амбициям Доктора и вернули человечеству мир.

Прошло 10 лет. Кодзи пошёл по стопам своего отца и дедушки и стал учёным. В процессе работы он сталкивается с неизвестной доселе формой жизни, захороненной глубоко под горой Фудзи. Новая встреча, новая угроза и новая судьба ждут человечество, будущее которого вновь доверено Мадзингеру Зэд.

Качество: BDRip 720p
Формат: MKV

Видео: 5565 Кбит/с, 1280x720
Аудио#1: AC3, 2 ch, 448 Кбит/с
скриншот  скриншот  скриншот  

Общее
Уникальный идентификатор : 196648218020920739976460194839466909718 (0x93F111B473068DA38EAD6DABBB04A016)
Полное имя : D:\Manzinger.Z.Infinity.2017.Pk.BDRip.72Op.mkv
Формат : Matroska
Версия формата : Version 2
Размер файла : 4,07 Гбайт
Продолжительность : 1 ч. 36 м.
Режим общего битрейта : Переменный
Общий поток : 6015 Кбит/сек
Дата кодирования : UTC 2018-04-04 19:40:27
Программа кодирования : mkvmerge v8.3.0 ('Over the Horizon') 64bit
Библиотека кодирования : libebml v1.3.1 + libmatroska v1.4.2

Видео
Идентификатор : 1
Формат : AVC
Формат/Информация : Advanced Video Codec
Профиль формата : High@L4.1
Параметр CABAC формата : Да
Параметр RefFrames формата : 4 кадра
Идентификатор кодека : V_MPEG4/ISO/AVC
Продолжительность : 1 ч. 36 м.
Вид битрейта : Переменный
Битрейт : 5565 Кбит/сек
Максимальный битрейт : 6700 Кбит/сек
Ширина : 1280 пикселей
Высота : 720 пикселей
Соотношение сторон : 16:9
Режим частоты кадров : Постоянный
Частота кадров : 23,976 (24000/1001) кадра/сек
Стандарт вещания : Component
Цветовое пространство : YUV
Субдискретизация насыщенности : 4:2:0
Битовая глубина : 8 бит
Тип развёртки : Прогрессивная
Бит/(Пиксели*Кадры) : 0.247
Размер потока : 3,69 Гбайт (91%)
Default : Да
Forced : Нет
Цветовой диапазон : Limited
Основные цвета : BT.709
Характеристики трансфера : BT.709
Коэффициенты матрицы : BT.709

Аудио
Идентификатор : 2
Формат : AC-3
Формат/Информация : Audio Coding 3
Расширение режима : CM (complete main)
Параметр Endianness формата : Big
Идентификатор кодека : A_AC3
Продолжительность : 1 ч. 36 м.
Вид битрейта : Постоянный
Битрейт : 448 Кбит/сек
Каналы : 2 канала
Расположение каналов : Front: L R
Частота : 48,0 КГц
Частота кадров : 31,250 кадров/сек (1536 spf)
Метод сжатия : С потерями
Размер потока : 311 Мбайт (7%)
Default : Да
Forced : Нет

pb.wtf



Скачать Мадзингер Зэд через торрент http://img12.lostpic.net/2018/04/05/641498e8ab4bc08f15c4b1b39cd3a375.jpg Скачать фильм Мадзингер Зэд через торрент бесплантно в хорошем качестве Описание: Однажды человечество оказалось на грани гибели из-за злого учёного Докора Хелла и его подпольной империи. Кодзи Кабуто, его ... 6.6 10 8
Торрент: Зарегистрирован [2018-04-05 06:50] · скачан: 66 раз
Статус: T временная
Размер: 4.07 GB
Как cкачать? Как скачать Мадзингер Зэд через торрент | qTorrent

% Раздел Тема Автор DL S | L
T Фильмы (мультфильмы) cо спонсором показа (Новинки AVI/MKV) [ 1.37 GB ] Мадзингер Зэд / Mazinger Z: Infinity [2017 аниме мультфильм HDRip] MVO [КОЛОБОК] bober100 Скачать
1 | 0

28-11-2019 20:33  

Отключить всю рекламу на сайте

    Дорогой пользователь! Огромная просьба, поблагодарите релизера, оцените раздачу и оставьте свои комментарий, если Вы скачали Мадзингер Зэд через торрент бесплатно! Внесите свою лепту в развитие PiratBit!
    Комментировать посты могут только пользователи прошедшие не сложную регистрацию
    Показать сообщения:    

    Мадзингер Зэд через торрент
    Скачать бесплатно Мадзингер Зэд
    Мадзингер Зэд скачать торрент
    Мадзингер Зэд смотреть онлайн
    Cкачать фильм Мадзингер Зэд бесплатно
    Мадзингер Зэд скачать торрент в хорошем качестве
    Мадзингер Зэд смотреть онлайн бесплатно в хорошем качестве


    Вы не можете начинать темы
    Вы не можете отвечать на сообщения
    Вы не можете редактировать свои сообщения
    Вы не можете удалять свои сообщения
    Вы не можете голосовать в опросах
    Вы не можете прикреплять файлы к сообщениям
    Вы можете скачивать файлы