Ссылка на приватное зеркало всего за 1$. Внимание количество ограничено!!!

OK

1+1

iTunes

мы

OK

1

WEB-DLRip

Джокер

Пифагор

Ведьмак / The Witcher сериал

iTunes

ПШазам

ОК

Оно 2

iTunes

30
pack

Вам бонус

ВАЖНО

!!Акция!!

Alien_RageХит недели

RePack

Resident Evil 21

ИГРА 18+

pack

RePack

jed

RePack

fifa19

RePack

Assassins Creed: Odyssey

RePack

NEED FOR SPEED™ PAYBACK

4 сезон

9 сезон

Бесстыжие 9 сезон

Все сериалы

все сериалы на PB.wtf

RePack

FAR CRY 5
  

Убийство Джоан / Killing Joan (Тодд Барту) [2018, ужасы, боевик, триллер, драма, криминал, WEB-DL 720p] MVO [AlphaProject] pb.wtf

Убийство Джоан через торрент pb.wtf

Размер: 3.49 GB | Добавлен: 1 год 9 мес. назад | Торрент скачан:45 раз
Скачать  

05-04-2018 08:10 Убийство Джоан Скачать торрент  

Убийство Джоан / Killing JoanГод выпуска: 2018
Страна: США
Жанр: ужасы, боевик, триллер, драма, криминал
Продолжительность: 01:24:08
Перевод: Любительский (многоголосый) | AlphaProject
Субтитры: отсутствуют

Режиссер: Тодд Барту

rating

В ролях:

Джэми Бернадетт, Эрик Од, Дэвид Кэри Фостер, Дэниэл Гарднер, Дион Баско, Каспер Андреас, Катарина Уотерс, Эрин О Брайэн

Описание:

Джоан работает на местного мафиози, который известен своей безжалостностью и диким нравом. После того, как на ее жизнь покушаются ее же коллеги, героиня решает разобраться с обидчиками. Девушка пойдет на всё, чтобы отомстить и устроить настоящую кровавую бойню.

Качество: WEB-DL 720p
Формат: MKV

Видео: 4446 Кбит/с, 1280x720
Аудио#1: AC3, 2 ch, 384 Кбит/с
скриншот  скриншот  скриншот  

Общее
Уникальный идентификатор : 211464024652921415997362869996863429848 (0x9F167D5E8CD4151495E6B212D5851CD8)
Полное имя : D:\Killing Joan 2018.Pa.WEB-DL.72Op_KOSHARA.mkv
Формат : Matroska
Версия формата : Version 2
Размер файла : 3,49 Гбайт
Продолжительность : 1 ч. 43 м.
Режим общего битрейта : Переменный
Общий поток : 4831 Кбит/сек
Дата кодирования : UTC 2018-04-04 19:47:23
Программа кодирования : mkvmerge v8.3.0 ('Over the Horizon') 64bit
Библиотека кодирования : libebml v1.3.1 + libmatroska v1.4.2

Видео
Идентификатор : 1
Формат : AVC
Формат/Информация : Advanced Video Codec
Профиль формата : High@L4.1
Параметр CABAC формата : Да
Параметр RefFrames формата : 4 кадра
Идентификатор кодека : V_MPEG4/ISO/AVC
Продолжительность : 1 ч. 43 м.
Вид битрейта : Переменный
Битрейт : 4446 Кбит/сек
Максимальный битрейт : 5000 Кбит/сек
Ширина : 1280 пикселей
Высота : 720 пикселей
Соотношение сторон : 16:9
Режим частоты кадров : Постоянный
Частота кадров : 23,976 (24000/1001) кадра/сек
Стандарт вещания : Component
Цветовое пространство : YUV
Субдискретизация насыщенности : 4:2:0
Битовая глубина : 8 бит
Тип развёртки : Прогрессивная
Бит/(Пиксели*Кадры) : 0.197
Размер потока : 3,15 Гбайт (90%)
Default : Да
Forced : Нет
Цветовой диапазон : Limited
Основные цвета : BT.709
Характеристики трансфера : BT.709
Коэффициенты матрицы : BT.709

Аудио
Идентификатор : 2
Формат : AC-3
Формат/Информация : Audio Coding 3
Расширение режима : CM (complete main)
Параметр Endianness формата : Big
Идентификатор кодека : A_AC3
Продолжительность : 1 ч. 43 м.
Вид битрейта : Постоянный
Битрейт : 384 Кбит/сек
Каналы : 2 канала
Расположение каналов : Front: L R
Частота : 48,0 КГц
Частота кадров : 31,250 кадров/сек (1536 spf)
Метод сжатия : С потерями
Размер потока : 284 Мбайт (8%)
Default : Да
Forced : Нет

pb.wtf



Скачать Убийство Джоан через торрент http://img12.lostpic.net/2018/04/05/65277853d40a807d033098b7b3abfc48.jpg Скачать фильм Убийство Джоан через торрент бесплантно в хорошем качестве Описание: Джоан работает на местного мафиози, который известен своей безжалостностью и диким нравом. После того, как на ее жизнь покушаются ... 7.8 10 4
Торрент: Зарегистрирован [2018-04-05 08:10] · скачан: 45 раз
Статус: T временная
Размер: 3.49 GB
Как cкачать? Как скачать Убийство Джоан через торрент | qTorrent

% Раздел Тема Автор DL S | L
T Фильмы (WEB-DL 720p, 1080p) [ 4.24 GB ] Убийство Джоан / Killing Joan [2018 WEB-DL 1080p] DVO [HiWay Grope] sokol_ok Скачать
2 | 0
T Фильмы 2019-2020 (Звук TS, Cam, VO, DVO) [ 1.47 GB ] Убийство Джоан / Killing Joan [2018 WEB-DLRip-AVC] DVO [HiWay Grope] sokol_ok Скачать
2 | 1
T Фильмы (мультфильмы) cо спонсором показа (Новинки AVI/MKV) [ 1.46 GB ] Убийство Джоан / Killing Joan [2018 WEB-DLRip] MVO [AlphaProject] bober100 Скачать
1 | 0

28-11-2019 20:33  

Отключить всю рекламу на сайте

05-04-2018 09:36 Убийство Джоан Скачать торрент  

трэшь пройду мимоpb.wtf



    Дорогой пользователь! Огромная просьба, поблагодарите релизера, оцените раздачу и оставьте свои комментарий, если Вы скачали Убийство Джоан через торрент бесплатно! Внесите свою лепту в развитие PiratBit!
    Комментировать посты могут только пользователи прошедшие не сложную регистрацию
    Показать сообщения:    

    Убийство Джоан через торрент
    Скачать бесплатно Убийство Джоан
    Убийство Джоан скачать торрент
    Убийство Джоан смотреть онлайн
    Cкачать фильм Убийство Джоан бесплатно
    Убийство Джоан скачать торрент в хорошем качестве
    Убийство Джоан смотреть онлайн бесплатно в хорошем качестве


    Вы не можете начинать темы
    Вы не можете отвечать на сообщения
    Вы не можете редактировать свои сообщения
    Вы не можете удалять свои сообщения
    Вы не можете голосовать в опросах
    Вы не можете прикреплять файлы к сообщениям
    Вы можете скачивать файлы