Marvel's Avengers Deluxe Edition (супер цена) 159р. Внимание количество ограничено!!!

2 сезон

iTunes

iTunes

1

iTunes

iTunes

iTunes

WEBRip

iTunes

30
pack

Новость дня

ВАЖНО

!!Акция!!

Alien_RageХит недели

RePack

Horizon Zero Dawn

ИГРА 18+

pack

RePack

jed

!!Акция!!

Alien_Rage

RePack

fifa19

RePack

Assassins Creed: Odyssey

RePack

NEED FOR SPEED™ PAYBACK

4 сезон

9 сезон

Бесстыжие 9 сезон

Все сериалы

все сериалы на PB.wtf

RePack

FAR CRY 5
  

Наизнанку / Outside In (Линн Шелтон) [2017, драма, WEB-DL 720p] MVO ["Синема УС"] pb.wtf

Наизнанку через торрент pb.wtf

Размер: 3.76 GB | Добавлен: 2 года 5 мес. назад | Торрент скачан:5 раз
Скачать  

05-04-2018 09:24 Наизнанку Скачать торрент  

Наизнанку / Outside InГод выпуска: 2017
Страна: США
Жанр: драма
Продолжительность: 01:51:47
Перевод: Любительский (многоголосый) | "Синема УС"
Субтитры: отсутствуют

Режиссер: Линн Шелтон

rating

В ролях:

Иди Фалько, Джей Дюпласс, Кейтлин Дивер, Бен Шварц, Аарон Блэйкли, Эмили Коуэн, Алисия Делмор, Стивен Гренли, Сайге Хоторн, Луис Хобсон

Описание:

Отсидев 20 лет за преступление, которого не совершал, 38-летний Крис выходит на свободу. Пытаясь понять современный мир и наладить отношения с братом Тедом, Крис понимает, что влюблён в Кэрол - адвоката, чьими стараниями он и оказался на свободе.

Качество: WEB-DL 720p
Формат: AVI

Видео: 4432 Кбит/с, 1280x692
Аудио#1: AC3, 2 ch, 384 Кбит/с
скриншот  скриншот  скриншот  

Общее
Уникальный идентификатор : 214922713224640065701366391182248195448 (0xA1B09BE1B60C78AD8E531A336E313578)
Полное имя : D:\Outside In 2017.P.WEB-DL.72Op_KOSHARA.mkv
Формат : Matroska
Версия формата : Version 2
Размер файла : 3,76 Гбайт
Продолжительность : 1 ч. 51 м.
Режим общего битрейта : Переменный
Общий поток : 4817 Кбит/сек
Дата кодирования : UTC 2018-04-04 07:10:35
Программа кодирования : mkvmerge v8.3.0 ('Over the Horizon') 64bit
Библиотека кодирования : libebml v1.3.1 + libmatroska v1.4.2

Видео
Идентификатор : 1
Формат : AVC
Формат/Информация : Advanced Video Codec
Профиль формата : High@L4.1
Параметр CABAC формата : Да
Параметр RefFrames формата : 4 кадра
Идентификатор кодека : V_MPEG4/ISO/AVC
Продолжительность : 1 ч. 51 м.
Вид битрейта : Переменный
Битрейт : 4432 Кбит/сек
Максимальный битрейт : 5000 Кбит/сек
Ширина : 1280 пикселей
Высота : 692 пикселя
Соотношение сторон : 1,85:1
Режим частоты кадров : Постоянный
Частота кадров : 23,976 (24000/1001) кадра/сек
Стандарт вещания : Component
Цветовое пространство : YUV
Субдискретизация насыщенности : 4:2:0
Битовая глубина : 8 бит
Тип развёртки : Прогрессивная
Бит/(Пиксели*Кадры) : 0.204
Размер потока : 3,39 Гбайт (90%)
Default : Да
Forced : Нет
Цветовой диапазон : Limited
Основные цвета : BT.709
Характеристики трансфера : BT.709
Коэффициенты матрицы : BT.709

Аудио
Идентификатор : 2
Формат : AC-3
Формат/Информация : Audio Coding 3
Расширение режима : CM (complete main)
Параметр Endianness формата : Big
Идентификатор кодека : A_AC3
Продолжительность : 1 ч. 51 м.
Вид битрейта : Постоянный
Битрейт : 384 Кбит/сек
Каналы : 2 канала
Расположение каналов : Front: L R
Частота : 48,0 КГц
Частота кадров : 31,250 кадров/сек (1536 spf)
Метод сжатия : С потерями
Размер потока : 307 Мбайт (8%)
Default : Да
Forced : Нет

pb.wtf



Скачать Наизнанку через торрент http://img12.lostpic.net/2018/04/05/123623a5e42f72f5b704ea7ecf0fd118.jpg Скачать фильм Наизнанку через торрент бесплантно в хорошем качестве Описание: Отсидев 20 лет за преступление, которого не совершал, 38-летний Крис выходит на свободу. Пытаясь понять современный мир и ... 10 10 3
Торрент: Зарегистрирован [2018-04-05 09:24] · скачан: 5 раз
Статус: T временная
Размер: 3.76 GB
Как cкачать? Как скачать Наизнанку через торрент | qTorrent

% Раздел Тема Автор DL S | L
T Фильмы (мультфильмы) cо спонсором показа (Новинки AVI/MKV) [ 1.37 GB ] Наизнанку / Outside In [2017 WEB-DLRip] MVO ["Синема УС"] bober100 Скачать
1 | 0

28-11-2019 20:33  

Отключить всю рекламу на сайте

    Дорогой пользователь! Огромная просьба, поблагодарите релизера, оцените раздачу и оставьте свои комментарий, если Вы скачали Наизнанку через торрент бесплатно! Внесите свою лепту в развитие PiratBit!
    Комментировать посты могут только пользователи прошедшие не сложную регистрацию
    Показать сообщения:    

    Наизнанку через торрент
    Скачать бесплатно Наизнанку
    Наизнанку скачать торрент
    Наизнанку смотреть онлайн
    Cкачать фильм Наизнанку бесплатно
    Наизнанку скачать торрент в хорошем качестве
    Наизнанку смотреть онлайн бесплатно в хорошем качестве


    Вы не можете начинать темы
    Вы не можете отвечать на сообщения
    Вы не можете редактировать свои сообщения
    Вы не можете удалять свои сообщения
    Вы не можете голосовать в опросах
    Вы не можете прикреплять файлы к сообщениям
    Вы можете скачивать файлы