Ссылка на приватное зеркало всего за 1$. Внимание количество ограничено!!!

OK

1+1

iTunes

мы

OK

1

WEB-DLRip

Джокер

Пифагор

Ведьмак / The Witcher сериал

Лицензия

ПШазам

ОК

Оно 2

iTunes

30
pack

Вам бонус

ВАЖНО

!!Акция!!

Alien_RageХит недели

RePack

Resident Evil 21

ИГРА 18+

pack

RePack

jed

!!Акция!!

Alien_Rage

RePack

fifa19

RePack

Assassins Creed: Odyssey

RePack

NEED FOR SPEED™ PAYBACK

4 сезон

9 сезон

Бесстыжие 9 сезон

Все сериалы

все сериалы на PB.wtf

RePack

FAR CRY 5
  

Мамин ангелочек / Mommy's Little Ange (Кертис Кроуфорд) [2018, драма, HDTVRip 720p] MVO ["Синема УС"] pb.wtf

Мамин ангелочек через торрент pb.wtf

Размер: 2.67 GB | Добавлен: 1 год 9 мес. назад | Торрент скачан:7 раз
Скачать  

05-04-2018 09:34 Мамин ангелочек Скачать торрент  

Мамин ангелочек / Mommy's Little AngeГод выпуска: 2018
Страна: Канада
Жанр: драма
Продолжительность: 01:26:34
Перевод: Любительский (многоголосый) | "Синема УС"
Субтитры: отсутствуют

Режиссер: Кертис Кроуфорд

rating

В ролях:

Аманда Клэйтон, Морган Неундорф, Питер Майкл Диллон, Крис Гэллинджер, Ренни Уилкинсон, Кимберли Лаферрье, Карен Клише, Бреннан Мартин, Марк Дэй, Амбре Линдаль

Описание:

12-летняя Кэти еще совсем мала, но уже через многое прошла. После смерти ее мамы, кузины решают усыновить девочку. Кэти обожает свою новую семью и не позволит никому, в том числе своему жестокому отцу, забрать ее у них.

Качество: HDTVRip 720p
Формат: MKV

Видео: 4030 Кбит/с, 1280x720
Аудио#1: AC3, 2 ch, 384 Кбит/с
скриншот  скриншот  скриншот  

Общее
Уникальный идентификатор : 208043717783042299847643243358918573141 (0x9C83C33892F22575B0076EF863347C55)
Полное имя : D:\mommys.little.angel.2018.P.HDTV.72Op_KOSHARA.mkv
Формат : Matroska
Версия формата : Version 2
Размер файла : 2,67 Гбайт
Продолжительность : 1 ч. 26 м.
Режим общего битрейта : Переменный
Общий поток : 4416 Кбит/сек
Дата кодирования : UTC 2018-04-04 12:36:48
Программа кодирования : mkvmerge v8.3.0 ('Over the Horizon') 64bit
Библиотека кодирования : libebml v1.3.1 + libmatroska v1.4.2

Видео
Идентификатор : 1
Формат : AVC
Формат/Информация : Advanced Video Codec
Профиль формата : High@L4.1
Параметр CABAC формата : Да
Параметр RefFrames формата : 4 кадра
Идентификатор кодека : V_MPEG4/ISO/AVC
Продолжительность : 1 ч. 26 м.
Вид битрейта : Переменный
Битрейт : 4030 Кбит/сек
Максимальный битрейт : 4500 Кбит/сек
Ширина : 1280 пикселей
Высота : 720 пикселей
Соотношение сторон : 16:9
Режим частоты кадров : Постоянный
Частота кадров : 23,976 (24000/1001) кадра/сек
Стандарт вещания : Component
Цветовое пространство : YUV
Субдискретизация насыщенности : 4:2:0
Битовая глубина : 8 бит
Тип развёртки : Прогрессивная
Бит/(Пиксели*Кадры) : 0.178
Размер потока : 2,39 Гбайт (89%)
Default : Да
Forced : Нет
Цветовой диапазон : Limited
Основные цвета : BT.709
Характеристики трансфера : BT.709
Коэффициенты матрицы : BT.709

Аудио
Идентификатор : 2
Формат : AC-3
Формат/Информация : Audio Coding 3
Расширение режима : CM (complete main)
Параметр Endianness формата : Big
Идентификатор кодека : A_AC3
Продолжительность : 1 ч. 26 м.
Вид битрейта : Постоянный
Битрейт : 384 Кбит/сек
Каналы : 2 канала
Расположение каналов : Front: L R
Частота : 48,0 КГц
Частота кадров : 31,250 кадров/сек (1536 spf)
Метод сжатия : С потерями
Размер потока : 238 Мбайт (9%)
Default : Да
Forced : Нет

pb.wtf



Скачать Мамин ангелочек через торрент http://img12.lostpic.net/2018/04/05/af8438050ee279f497eec36e7e6fc0b4.jpg Скачать фильм Мамин ангелочек через торрент бесплантно в хорошем качестве Описание: 12-летняя Кэти еще совсем мала, но уже через многое прошла. После смерти ее мамы, кузины решают усыновить девочку. Кэти обожает ... 10 10 3
Торрент: Зарегистрирован [2018-04-05 09:34] · скачан: 7 раз
Статус: T временная
Размер: 2.67 GB
Как cкачать? Как скачать Мамин ангелочек через торрент | qTorrent

28-11-2019 20:33  

Отключить всю рекламу на сайте

    Дорогой пользователь! Огромная просьба, поблагодарите релизера, оцените раздачу и оставьте свои комментарий, если Вы скачали Мамин ангелочек через торрент бесплатно! Внесите свою лепту в развитие PiratBit!
    Комментировать посты могут только пользователи прошедшие не сложную регистрацию
    Показать сообщения:    

    Мамин ангелочек через торрент
    Скачать бесплатно Мамин ангелочек
    Мамин ангелочек скачать торрент
    Мамин ангелочек смотреть онлайн
    Cкачать фильм Мамин ангелочек бесплатно
    Мамин ангелочек скачать торрент в хорошем качестве
    Мамин ангелочек смотреть онлайн бесплатно в хорошем качестве


    Вы не можете начинать темы
    Вы не можете отвечать на сообщения
    Вы не можете редактировать свои сообщения
    Вы не можете удалять свои сообщения
    Вы не можете голосовать в опросах
    Вы не можете прикреплять файлы к сообщениям
    Вы можете скачивать файлы