Ссылка на приватное зеркало нашего сайта всего за 1$. Внимание количество ограничено!!!

2 сезон

iTunes

1 сезон

1

iTunes

iTunes

iTunes

1 сезон

RePack

30

ИГРА 18+

pack

ВАЖНО

!!Акция!!

Alien_RageХит недели

RePack

MK11
pack

Забери бонус

RePack

jed

!!Акция!!

Alien_Rage

RePack

fifa19

RePack

Assassins Creed: Odyssey

RePack

NEED FOR SPEED™ PAYBACK

4 сезон

9 сезон

Бесстыжие 9 сезон

Все сериалы

все сериалы на PB.wtf

RePack

FAR CRY 5
  

Неподсудные / Сезон: 1 / Серии: 1-8 из 8 (Мурад Алиев) [2015, Триллер, HDTVRip-AVC] pb.wtf

Неподсудные через торрент pb.wtf

Размер: 5.29 GB | Добавлен: 2 года 6 мес. назад | Торрент скачан:73 раза
Скачать  

05-04-2018 09:41 Неподсудные Скачать торрент  

Неподсудные
Год выпуска: 2015
Страна: Россия
Жанр: Триллер
Продолжительность: ~ 00:45:00
Перевод: Не требуется
Субтитры: отсутствуют

Режиссер: Мурад Алиев



В ролях:


Игорь Петренко, Кирилл Плетнёв, Сергей Бурунов, Леван Мсхиладзе, Николай Добрынин, Даниил Спиваковский, Сергей Газаров, Антон Хабаров, Елена Николаева, Евгений Князев, Петар Зекавица, Роман Высоцкий (майор милиции)
Описание:

События фильма происходят весной 2001 года. Бывший офицер госбезопасности Андрей Воронов попадает под следствие. Его обвиняют в попытке похищения фигуранта громкого уголовного дела, а по сути - в пособничестве коррумпированным чиновникам. Андрей обращается к событиям 10-летней давности, когда он познакомился с человеком, который был на прицеле не только у российских, но и у мировых спецслужб... Чтобы спасти свое имя и репутацию, Воронов должен не просто выжить в смертельной партии, но из пешки превратиться в полноправного игрока.

Качество: HDTVRip-AVC
Формат: MKV

Видео: MPEG-4 AVC, ~ 2000 Кбит/с, 1024x576, 25 кадр/с
Аудио: AC3, 2 ch, 192 Кбит/с
скриншот   скриншот   скриншот   скриншот  

Общее
Уникальный идентификатор : 171445156586760162588799054595429079339 (0x80FB22D6BB8E04C9B0EFD37927A1992B)
Полное имя : D:\Неподсудные.2015.HDTVRip.(AVC).Files-x\Nepodsudnye.01.2015.HDTVRip.AVC.by.Серый1779.Files-x.mkv
Формат : Matroska
Версия формата : Version 2
Размер файла : 670 Мбайт
Продолжительность : 42 м. 42 с.
Общий поток : 2193 Кбит/сек
Дата кодирования : UTC 2015-11-17 16:22:27
Программа кодирования : mkvmerge v6.1.0 ('Old Devil') built on Mar 4 2013 09:10:42
Библиотека кодирования : libebml v1.3.0 + libmatroska v1.4.0

Видео
Идентификатор : 1
Формат : AVC
Формат/Информация : Advanced Video Codec
Профиль формата : High@L4.1
Параметр CABAC формата : Да
Параметр RefFrames формата : 9 кадров
Идентификатор кодека : V_MPEG4/ISO/AVC
Продолжительность : 42 м. 42 с.
Битрейт : 2000 Кбит/сек
Ширина : 1024 пикселя
Высота : 576 пикселей
Соотношение сторон : 16:9
Режим частоты кадров : Постоянный
Частота кадров : 25,000 кадров/сек
Цветовое пространство : YUV
Субдискретизация насыщенности : 4:2:0
Битовая глубина : 8 бит
Тип развёртки : Прогрессивная
Бит/(Пиксели*Кадры) : 0.136
Размер потока : 598 Мбайт (89%)
Библиотека кодирования : x264 core 130 r2273 b3065e6
Настройки программы : cabac=1 / ref=9 / deblock=1:-2:-1 / analyse=0x3:0x133 / me=umh / subme=9 / psy=1 / psy_rd=1.00:0.15 / mixed_ref=1 / me_range=32 / chroma_me=1 / trellis=2 / 8x8dct=1 / cqm=0 / deadzone=21,11 / fast_pskip=0 / chroma_qp_offset=-3 / threads=6 / lookahead_threads=1 / sliced_threads=0 / nr=0 / decimate=1 / interlaced=0 / bluray_compat=0 / constrained_intra=0 / bframes=9 / b_pyramid=2 / b_adapt=2 / b_bias=0 / direct=1 / weightb=1 / open_gop=0 / weightp=2 / keyint=250 / keyint_min=25 / scenecut=40 / intra_refresh=0 / rc=2pass / mbtree=0 / bitrate=2000 / ratetol=1.0 / qcomp=0.60 / qpmin=0 / qpmax=69 / qpstep=4 / cplxblur=20.0 / qblur=0.5 / ip_ratio=1.40 / pb_ratio=1.30 / aq=2:1.00
Default : Да
Forced : Нет
Цветовой диапазон : Limited
Основные цвета : BT.709
Характеристики трансфера : BT.709
Коэффициенты матрицы : BT.709

Аудио
Идентификатор : 2
Формат : AC-3
Формат/Информация : Audio Coding 3
Расширение режима : CM (complete main)
Параметр Endianness формата : Big
Идентификатор кодека : A_AC3
Продолжительность : 42 м. 42 с.
Вид битрейта : Постоянный
Битрейт : 192 Кбит/сек
Каналы : 2 канала
Расположение каналов : Front: L R
Частота : 48,0 КГц
Частота кадров : 31,250 кадров/сек (1536 spf)
Метод сжатия : С потерями
Размер потока : 58,7 Мбайт (9%)
Default : Да
Forced : Нет

pb.wtf



Скачать Неподсудные через торрент http://s49.radikal.ru/i124/1511/09/62993b432ec9.jpg Скачать фильм Неподсудные через торрент бесплантно в хорошем качестве Описание: События фильма происходят весной 2001 года. Бывший офицер госбезопасности Андрей Воронов попадает под следствие. Его обвиняют в ... 10 10 3
Торрент: Зарегистрирован [2018-04-05 09:41] · скачан: 73 раз
Статус: √ проверено
Размер: 5.29 GB
Как cкачать? Как скачать Неподсудные через торрент | qTorrent

% Раздел Тема Автор DL S | L
Наши сериалы [ 20.38 GB ] Неподсудные / Сезон: 1 / Серии: 1-8 из 8 [2015 HDTV 1080i] bober100 Скачать
1 | 0
Наши сериалы [ 10.4 GB ] Неподсудные / Сезон: 1 / Серии: 1-8 из 8 [2015 WEB-DL 1080p] bober100 Скачать
1 | 0
Наши сериалы [ 12.45 GB ] Неподсудные / Сезон: 1 / Серии: 1-8 из 8 [2015 HDTVRip 720p] bober100 Скачать
1 | 0
Наши сериалы [ 4.29 GB ] Неподсудные / Сезон: 1 / Серии: 1-8 из 8 [2015 HDTVRip] bober100 Скачать
1 | 0
Наши сериалы [ 4.88 GB ] Неподсудные Сезон: 1 / Серия 1-8 из 8 [2015 SATRip [Русский] White Smoke Скачать
1 | 0

28-11-2019 20:33  

Отключить всю рекламу на сайте

    Дорогой пользователь! Огромная просьба, поблагодарите релизера, оцените раздачу и оставьте свои комментарий, если Вы скачали Неподсудные через торрент бесплатно! Внесите свою лепту в развитие PiratBit!
    Комментировать посты могут только пользователи прошедшие не сложную регистрацию
    Показать сообщения:    

    Неподсудные через торрент
    Скачать бесплатно Неподсудные
    Неподсудные скачать торрент
    Неподсудные смотреть онлайн
    Cкачать фильм Неподсудные бесплатно
    Неподсудные скачать торрент в хорошем качестве
    Неподсудные смотреть онлайн бесплатно в хорошем качестве


    Вы не можете начинать темы
    Вы не можете отвечать на сообщения
    Вы не можете редактировать свои сообщения
    Вы не можете удалять свои сообщения
    Вы не можете голосовать в опросах
    Вы не можете прикреплять файлы к сообщениям
    Вы можете скачивать файлы