Ссылка на приватное зеркало нашего сайта всего за 1$. Внимание количество ограничено!!!

2 сезон

iTunes

1 сезон

1

2 сезон

2 сезон

iTunes

1 сезон

RePack

30

Ultimate

ВАЖНО

ИГРА 18+

pack

RePack

MK11
pack

Забери бонус

RePack

jed

!!Акция!!

Alien_Rage

RePack

fifa19

RePack

Assassins Creed: Odyssey

RePack

NEED FOR SPEED™ PAYBACK

4 сезон

9 сезон

Бесстыжие 9 сезон

Все сериалы

все сериалы на PB.wtf

RePack

FAR CRY 5
  

Тельма / Thelma (Йоаким Триер) [2017, триллер, драма, мелодрама, детектив, BD Remux 1080p] DUB [iTunes] pb.wtf

Тельма через торрент pb.wtf

Размер: 29.38 GB | Добавлен: 2 года 7 мес. назад | Торрент скачан:86 раз
Скачать  

05-04-2018 09:58 Тельма Скачать торрент  

Тельма / Thelma
Год выпуска: 2017
Страна: Норвегия, Франция, Дания, Швеция
Жанр: триллер, драма, мелодрама, детектив
Продолжительность: 01:56:23
Перевод: Дублированное | iTunes
Субтитры: Русские (forced, full), английские

Режиссер: Йоаким Триер

rating

В ролях:

Элли Харбоа, Кая Уилкинс, Хенрик Рафаелсен, Эллен Доррит Петерсен, Людвиг Альгебак, Изабель Кристин Андресен, Камилла Бельсвик, Ларс Берге, Ванесса Боргли, Сигве Бёэ

Описание:

Тельма поступает в университет и впервые начинает жить отдельно от родителей, гиперопекающих христиан. Девушка не поддается соблазнам, не пьет и не курит, но одному соблазну противостоять не может - ей очень нравится сокурсница Аня. Пробуждающиеся чувства и желания внезапно высвобождают ее пугающие тёмные способности. Когда подруга Тельмы пропадает, девушка осознает, что это может быть ее виной...

Качество: BD Remux 1080p
Формат: MKV

Видео: MPEG-4 AVC, 1920x1080, 32.3 Mbit/s, 23.976 fps
Аудио#1: 48 kHz, AC3, 5.1, 384 Kbps | Дублированный | iTunes | RUS |
Аудио#2: 48 kHz, DTS-HD MA, 5.1, 3418 Kbps | Оригинал | NOR |
скриншот   скриншот   скриншот   скриншот   скриншот  

General
Unique ID : 286939334786739302284835704628853067225 (0xD7DE817622554C77413509CE8A9FCDD9)
Complete name : C:Video111Thelma.2017.D.BDREMUX.1080p.ExKinoRay.mkv
Format : Matroska
Format version : Version 4 / Version 2
File size : 29.4 GiB
Duration : 1 h 56 min
Overall bit rate : 36.1 Mb/s
Movie name : Thelma 2017 from ExKinoRay
Encoded date : UTC 2018-04-05 09:06:52
Writing application : mkvmerge v22.0.0 ('At The End Of The World') 64-bit
Writing library : libebml v1.3.5 + libmatroska v1.4.8

Video
ID : 1
Format : AVC
Format/Info : Advanced Video Codec
Format profile : High@L4.1
Format settings : CABAC / 4 Ref Frames
Format settings, CABAC : Yes
Format settings, ReFrames : 4 frames
Codec ID : V_MPEG4/ISO/AVC
Duration : 1 h 56 min
Bit rate mode : Constant
Bit rate : 32.3 Mb/s
Nominal bit rate : 35.0 Mb/s
Width : 1 920 pixels
Height : 1 080 pixels
Display aspect ratio : 16:9
Frame rate mode : Constant
Frame rate : 23.976 (24000/1001) FPS
Standard : NTSC
Color space : YUV
Chroma subsampling : 4:2:0
Bit depth : 8 bits
Scan type : Progressive
Bits/(Pixel*Frame) : 0.650
Stream size : 26.3 GiB (89%)
Language : Norwegian
Default : Yes
Forced : No
Color range : Limited
Color primaries : BT.709
Transfer characteristics : BT.709
Matrix coefficients : BT.709

Audio #1
ID : 2
Format : AC-3
Format/Info : Audio Coding 3
Codec ID : A_AC3
Duration : 1 h 56 min
Bit rate mode : Constant
Bit rate : 384 kb/s
Channel(s) : 6 channels
Channel positions : Front: L C R, Side: L R, LFE
Sampling rate : 48.0 kHz
Frame rate : 31.250 FPS (1536 SPF)
Bit depth : 16 bits
Compression mode : Lossy
Stream size : 320 MiB (1%)
Title : iTunes
Language : Russian
Service kind : Complete Main
Default : Yes
Forced : Yes

Audio #2
ID : 3
Format : DTS
Format/Info : Digital Theater Systems
Format profile : MA / Core
Codec ID : A_DTS
Duration : 1 h 56 min
Bit rate mode : Variable / Constant
Bit rate : 3 418 kb/s / 1 509 kb/s
Channel(s) : 6 channels
Channel positions : Front: L C R, Side: L R, LFE
Sampling rate : 48.0 kHz
Frame rate : 93.750 FPS (512 SPF)
Bit depth : 24 bits
Compression mode : Lossless / Lossy
Stream size : 2.78 GiB (9%)
Title : Original
Language : Norwegian
Default : No
Forced : No

Text #1
ID : 4
Format : UTF-8
Codec ID : S_TEXT/UTF8
Codec ID/Info : UTF-8 Plain Text
Duration : 1 h 30 min
Bit rate : 0 b/s
Count of elements : 7
Stream size : 394 Bytes (0%)
Title : Forced
Language : Russian
Default : Yes
Forced : Yes

Text #2
ID : 5
Format : UTF-8
Codec ID : S_TEXT/UTF8
Codec ID/Info : UTF-8 Plain Text
Duration : 1 h 46 min
Bit rate : 38 b/s
Count of elements : 536
Stream size : 30.4 KiB (0%)
Title : Full
Language : Russian
Default : No
Forced : No

Text #3
ID : 6
Format : UTF-8
Codec ID : S_TEXT/UTF8
Codec ID/Info : UTF-8 Plain Text
Duration : 1 h 46 min
Bit rate : 23 b/s
Count of elements : 596
Stream size : 18.6 KiB (0%)
Title : Full
Language : English
Default : No
Forced : No

Menu
00:00:00.000 : en:00:00:00.000
00:11:14.257 : en:00:11:14.257
00:20:51.625 : en:00:20:51.625
00:30:28.326 : en:00:30:28.326
00:41:19.936 : en:00:41:19.936
00:47:49.909 : en:00:47:49.909
00:57:41.958 : en:00:57:41.958
01:13:14.640 : en:01:13:14.640
01:21:12.910 : en:01:21:12.910
01:30:13.241 : en:01:30:13.241
01:38:56.806 : en:01:38:56.806
01:49:27.019 : en:01:49:27.019

pb.wtf



Скачать Тельма через торрент http://pic1.kartinco.top/images/11/54q8s.jpg Скачать фильм Тельма через торрент бесплантно в хорошем качестве Описание: Тельма поступает в университет и впервые начинает жить отдельно от родителей, гиперопекающих христиан. Девушка не поддается ... 8.5 10 6
Info! Золотая раздача, скачанное не засчитывается.
Торрент: Зарегистрирован [2018-04-05 09:58] · скачан: 86 раз
Статус: √ проверено
Размер: 29.38 GB
Как cкачать? Как скачать Тельма через торрент | qTorrent

% Раздел Тема Автор DL S | L
Фильмы [HD 720p, 1080p] (Хороший звук DUB, MVO) [ 12.23 GB ] Тельма и Луиза / Thelma & Louise [1991 BDRip-HEVC 1080p] 3хMVO + 3хAVO RealOldGamer Скачать
4 | 2
Фильмы [HD 720p, 1080p] (Хороший звук DUB, MVO) [ 10.82 GB ] Тельма / Thelma [2017 BDRip 1080p] bober100 Скачать
1 | 0
Видео для КПК и Смартфонов [ 439 MB ] Тельма / Thelma [2017 HDRip КПК] Dub sergey82 Скачать
1 | 0
Фильмы (Blu-ray, BD-Remux, HDDVD) [ 35.21 GB ] Тельма / Thelma [2017 Blu-ray 1080p] - sheker187 Скачать
1 | 0
Фильмы 2017 [DVDrip, WEB-DLRip, HDrip] (DUB, MVO) [ 2.13 GB ] Тельма / Thelma [2017 BDRip] - Twi7ter Скачать
2 | 0
Фильмы 2017 [DVDrip, WEB-DLRip, HDrip] (DUB, MVO) [ 1.41 GB ] Тельма / Thelma [2017 BDRip] - Twi7ter Скачать
1 | 0
Фильмы 2017 [DVDrip, WEB-DLRip, HDrip] (DUB, MVO) [ 1.41 GB ] Тельма / Thelma [2017 BDRip] bober100 Скачать
2 | 0

28-11-2019 20:33  

Отключить всю рекламу на сайте

    Дорогой пользователь! Огромная просьба, поблагодарите релизера, оцените раздачу и оставьте свои комментарий, если Вы скачали Тельма через торрент бесплатно! Внесите свою лепту в развитие PiratBit!
    Комментировать посты могут только пользователи прошедшие не сложную регистрацию
    Показать сообщения:    

    Тельма через торрент
    Скачать бесплатно Тельма
    Тельма скачать торрент
    Тельма смотреть онлайн
    Cкачать фильм Тельма бесплатно
    Тельма скачать торрент в хорошем качестве
    Тельма смотреть онлайн бесплатно в хорошем качестве


    Вы не можете начинать темы
    Вы не можете отвечать на сообщения
    Вы не можете редактировать свои сообщения
    Вы не можете удалять свои сообщения
    Вы не можете голосовать в опросах
    Вы не можете прикреплять файлы к сообщениям
    Вы можете скачивать файлы