Ссылка на приватное зеркало нашего сайта всего за 1$. Внимание количество ограничено!!!

2 сезон

iTunes

iTunes

1

iTunes

iTunes

iTunes

WEBRip

iTunes

30
pack

Новость дня

ВАЖНО

!!Акция!!

Alien_RageХит недели

RePack

Horizon Zero Dawn

ИГРА 18+

pack

RePack

jed

!!Акция!!

Alien_Rage

RePack

fifa19

RePack

Assassins Creed: Odyssey

RePack

NEED FOR SPEED™ PAYBACK

4 сезон

9 сезон

Бесстыжие 9 сезон

Все сериалы

все сериалы на PB.wtf

RePack

FAR CRY 5
  

Оно пришло из пустыни / It Came from the Desert (Марко Макилааксо) [2017, ужасы, боевик, комедия, BDRip 720p] MVO ["Синема УС"] pb.wtf

Оно пришло из пустыни через торрент pb.wtf

Размер: 4.28 GB | Добавлен: 2 года 5 мес. назад | Торрент скачан:72 раза
Скачать  

05-04-2018 11:30 Оно пришло из пустыни Скачать торрент  

Оно пришло из пустыни / It Came from the DesertГод выпуска: 2017
Страна: Великобритания, Канада, Финляндия
Жанр: ужасы, боевик, комедия
Продолжительность: 01:32:36
Перевод: Любительский (многоголосый) | "Синема УС"
Субтитры: отсутствуют

Режиссер: Марко Макилааксо

rating

В ролях:

Ванесса Грасс, Марк Арнольд, Гарри Смит, Клаудия Тружильо, Алекс Миллс, Джеймс Элпер

Описание:

Сочный экшн-фильм про монстров, сделанный по культовой игре 1980-х годов Cinemaware "Оно пришло из пустыни". Ностальгический трибьют о существах из 1950-х вобрал в себя гоняющих на байках героев и героинь, пивные вечеринки в пустыне, секретные военные базы, любовные перепитии и, конечно, гигантов-муравьев.

Качество: BDRip 720p
Формат: MKV

Видео: 6168 Кбит/с, 1280x536
Аудио#1: AC3, 2 ch, 384 Кбит/с
скриншот  скриншот  скриншот  

Общее
Уникальный идентификатор : 219095512967532707537495600964279780224 (0xA4D442CB07E785F480DED68C62E0C380)
Полное имя : D:\it.came.from.the.desert.2017.P.BDRip.72Op_KOSHARA.mkv
Формат : Matroska
Версия формата : Version 2
Размер файла : 4,28 Гбайт
Продолжительность : 1 ч. 32 м.
Режим общего битрейта : Переменный
Общий поток : 6618 Кбит/сек
Дата кодирования : UTC 2018-04-04 10:38:15
Программа кодирования : mkvmerge v8.3.0 ('Over the Horizon') 64bit
Библиотека кодирования : libebml v1.3.1 + libmatroska v1.4.2

Видео
Идентификатор : 1
Формат : AVC
Формат/Информация : Advanced Video Codec
Профиль формата : High@L4.1
Параметр CABAC формата : Да
Параметр RefFrames формата : 4 кадра
Идентификатор кодека : V_MPEG4/ISO/AVC
Продолжительность : 1 ч. 32 м.
Вид битрейта : Переменный
Битрейт : 6168 Кбит/сек
Максимальный битрейт : 6700 Кбит/сек
Ширина : 1280 пикселей
Высота : 536 пикселей
Соотношение сторон : 2,40:1
Режим частоты кадров : Постоянный
Частота кадров : 23,976 (24000/1001) кадра/сек
Стандарт вещания : Component
Цветовое пространство : YUV
Субдискретизация насыщенности : 4:2:0
Битовая глубина : 8 бит
Тип развёртки : Прогрессивная
Бит/(Пиксели*Кадры) : 0.367
Размер потока : 3,91 Гбайт (91%)
Default : Да
Forced : Нет
Цветовой диапазон : Limited
Основные цвета : BT.709
Характеристики трансфера : BT.709
Коэффициенты матрицы : BT.709

Аудио
Идентификатор : 2
Формат : AC-3
Формат/Информация : Audio Coding 3
Расширение режима : CM (complete main)
Параметр Endianness формата : Big
Идентификатор кодека : A_AC3
Продолжительность : 1 ч. 32 м.
Вид битрейта : Постоянный
Битрейт : 448 Кбит/сек
Каналы : 2 канала
Расположение каналов : Front: L R
Частота : 48,0 КГц
Частота кадров : 31,250 кадров/сек (1536 spf)
Метод сжатия : С потерями
Размер потока : 297 Мбайт (7%)
Default : Да
Forced : Нет

pb.wtf



Скачать Оно пришло из пустыни через торрент http://img12.lostpic.net/2018/04/05/b20dfaef9f69d92400243a42da598c4b.jpg Скачать фильм Оно пришло из пустыни через торрент бесплантно в хорошем качестве Описание: Сочный экшн-фильм про монстров, сделанный по культовой игре 1980-х годов Cinemaware "Оно пришло из пустыни". Ностальгический ... 7.1 10 7
Торрент: Зарегистрирован [2018-04-05 11:30] · скачан: 72 раз
Статус: T временная
Размер: 4.28 GB
Как cкачать? Как скачать Оно пришло из пустыни через торрент | qTorrent

% Раздел Тема Автор DL S | L
T Фильмы (мультфильмы) cо спонсором показа (Новинки AVI/MKV) [ 1.37 GB ] Оно пришло из пустыни / It Came from the Desert [2017 HDRip] MVO ["Синема УС"] bober100 Скачать
1 | 0

28-11-2019 20:33  

Отключить всю рекламу на сайте

    Дорогой пользователь! Огромная просьба, поблагодарите релизера, оцените раздачу и оставьте свои комментарий, если Вы скачали Оно пришло из пустыни через торрент бесплатно! Внесите свою лепту в развитие PiratBit!
    Комментировать посты могут только пользователи прошедшие не сложную регистрацию
    Показать сообщения:    

    Оно пришло из пустыни через торрент
    Скачать бесплатно Оно пришло из пустыни
    Оно пришло из пустыни скачать торрент
    Оно пришло из пустыни смотреть онлайн
    Cкачать фильм Оно пришло из пустыни бесплатно
    Оно пришло из пустыни скачать торрент в хорошем качестве
    Оно пришло из пустыни смотреть онлайн бесплатно в хорошем качестве


    Вы не можете начинать темы
    Вы не можете отвечать на сообщения
    Вы не можете редактировать свои сообщения
    Вы не можете удалять свои сообщения
    Вы не можете голосовать в опросах
    Вы не можете прикреплять файлы к сообщениям
    Вы можете скачивать файлы