Ссылка на приватное зеркало всего за 1$. Внимание количество ограничено!!!

OK

1+1

iTunes

мы

OK

1

WEB-DLRip

Джокер

Пифагор

Ведьмак / The Witcher сериал

iTunes

ПШазам

ОК

Оно 2

iTunes

30
pack

Вам бонус

ВАЖНО

!!Акция!!

Alien_RageХит недели

RePack

Resident Evil 21

ИГРА 18+

pack

RePack

jed

RePack

fifa19

RePack

Assassins Creed: Odyssey

RePack

NEED FOR SPEED™ PAYBACK

4 сезон

9 сезон

Бесстыжие 9 сезон

Все сериалы

все сериалы на PB.wtf

RePack

FAR CRY 5
  

Бабс / Babs (Доминик Леклерк) [2017, драма, биография, WEB-DL 720p] MVO [AlphaProject] pb.wtf

Бабс через торрент pb.wtf

Размер: 3.04 GB | Добавлен: 1 год 9 мес. назад | Торрент скачан:5 раз
Скачать  

05-04-2018 11:57 Бабс Скачать торрент  

Бабс / BabsГод выпуска: 2017
Страна: Великобритания
Жанр: драма, биография
Продолжительность: 01:29:49
Перевод: Любительский (многоголосый) | AlphaProject
Субтитры: отсутствуют

Режиссер: Доминик Леклерк

rating

В ролях:

Саманта Спиро, Чарли Арчер, Ник Моран, Хонор Книфси, Лиэнн Бест, Нэйтан Хармер, Марти Крюкшенк, Мэтью Бейтс

Описание:

История жизни и творческого пути актрисы Барбары Виндзор. Что делать, если, несмотря на успех и признание, не получается обрести личное счастье? Сможет ли уже немолодая актриса вновь обрести веру в себя и снова выйти на сцену?

Качество: WEB-DL 720p
Формат: MKV

Видео: 4457 Кбит/с, 1280x720
Аудио#1: AC3, 2 ch, 384 Кбит/с
скриншот  скриншот  скриншот  

Общее
Уникальный идентификатор : 184065259861624351664655552337766025265 (0x8A79ADF83A16A6329F8A16C0A0F88831)
Полное имя : D:\Babs.2017.Pa.WEB-DL.72Op_KOSHARA.mkv
Формат : Matroska
Версия формата : Version 2
Размер файла : 3,04 Гбайт
Продолжительность : 1 ч. 29 м.
Режим общего битрейта : Переменный
Общий поток : 4842 Кбит/сек
Дата кодирования : UTC 2018-04-04 07:13:09
Программа кодирования : mkvmerge v8.3.0 ('Over the Horizon') 64bit
Библиотека кодирования : libebml v1.3.1 + libmatroska v1.4.2

Видео
Идентификатор : 1
Формат : AVC
Формат/Информация : Advanced Video Codec
Профиль формата : High@L4.1
Параметр CABAC формата : Да
Параметр RefFrames формата : 4 кадра
Идентификатор кодека : V_MPEG4/ISO/AVC
Продолжительность : 1 ч. 29 м.
Вид битрейта : Переменный
Битрейт : 4457 Кбит/сек
Максимальный битрейт : 5000 Кбит/сек
Ширина : 1280 пикселей
Высота : 720 пикселей
Соотношение сторон : 16:9
Режим частоты кадров : Постоянный
Частота кадров : 23,976 (24000/1001) кадра/сек
Стандарт вещания : Component
Цветовое пространство : YUV
Субдискретизация насыщенности : 4:2:0
Битовая глубина : 8 бит
Тип развёртки : Прогрессивная
Бит/(Пиксели*Кадры) : 0.197
Размер потока : 2,74 Гбайт (90%)
Default : Да
Forced : Нет
Цветовой диапазон : Limited
Основные цвета : BT.709
Характеристики трансфера : BT.709
Коэффициенты матрицы : BT.709

Аудио
Идентификатор : 2
Формат : AC-3
Формат/Информация : Audio Coding 3
Расширение режима : CM (complete main)
Параметр Endianness формата : Big
Идентификатор кодека : A_AC3
Продолжительность : 1 ч. 29 м.
Вид битрейта : Постоянный
Битрейт : 384 Кбит/сек
Каналы : 2 канала
Расположение каналов : Front: L R
Частота : 48,0 КГц
Частота кадров : 31,250 кадров/сек (1536 spf)
Метод сжатия : С потерями
Размер потока : 247 Мбайт (8%)
Default : Да
Forced : Нет

pb.wtf



Скачать Бабс через торрент http://img12.lostpic.net/2018/04/05/1d7eab60480702c52b364f908c5bf17c.jpg Скачать фильм Бабс через торрент бесплантно в хорошем качестве Описание: История жизни и творческого пути актрисы Барбары Виндзор. Что делать, если, несмотря на успех и признание, не получается обрести ... 7.8 10 4
Торрент: Зарегистрирован [2018-04-05 11:57] · скачан: 5 раз
Статус: T временная
Размер: 3.04 GB
Как cкачать? Как скачать Бабс через торрент | qTorrent

% Раздел Тема Автор DL S | L
T Фильмы (мультфильмы) cо спонсором показа (Новинки AVI/MKV) [ 1.37 GB ] Бабс / Babs [2017 биография WEB-DLRip] MVO [AlphaProject] bober100 Скачать
1 | 0

28-11-2019 20:33  

Отключить всю рекламу на сайте

    Дорогой пользователь! Огромная просьба, поблагодарите релизера, оцените раздачу и оставьте свои комментарий, если Вы скачали Бабс через торрент бесплатно! Внесите свою лепту в развитие PiratBit!
    Комментировать посты могут только пользователи прошедшие не сложную регистрацию
    Показать сообщения:    

    Бабс через торрент
    Скачать бесплатно Бабс
    Бабс скачать торрент
    Бабс смотреть онлайн
    Cкачать фильм Бабс бесплатно
    Бабс скачать торрент в хорошем качестве
    Бабс смотреть онлайн бесплатно в хорошем качестве


    Вы не можете начинать темы
    Вы не можете отвечать на сообщения
    Вы не можете редактировать свои сообщения
    Вы не можете удалять свои сообщения
    Вы не можете голосовать в опросах
    Вы не можете прикреплять файлы к сообщениям
    Вы можете скачивать файлы