2 сезон

iTunes

MVO

1

2 сезон

iTunes

iTunes

1 сезон

RePack

30

Новинка

ВАЖНО

ИГРА 18+

pack

RePack

MK11
pack

Легкие деньги

RePack

jed

RePack

fifa19

RePack

RDR2

RePack

NEED FOR SPEED™ PAYBACK

4 сезон

9 сезон

Бесстыжие 9 сезон

Все сериалы

все сериалы на PB.wtf

RePack

FAR CRY 5

Anonymous, доброй ночи, мы не успеваем собрать деньги на оплату серверов за декабрь и январь, помогите нам пожалуйста в это трудное время. В качестве благодарности мы отключим Вам всю рекламу на сайте (укажите свой ник в строку Ваше имя)!

×
  
Magnet ссылка

Тельма / Thelma (Йоаким Триер) [2017, триллер, драма, мелодрама, детектив, BDRip-AVC] DUB [iTunes] pb.wtf

Тельма через торрент pb.wtf

Размер: 1.47 GB | Добавлен: 2 года 9 мес. назад | Торрент скачан:486 раз
Скачать  

05-04-2018 13:42 Тельма Скачать торрент  

Тельма / ThelmaГод выпуска: 2017
Страна: Норвегия, Франция, Дания, Швеция
Жанр: триллер, драма, мелодрама, детектив
Продолжительность: 01:56:23
Перевод: Дублированное | iTunes
Субтитры: Русские форсированные (отдельно)

Режиссер: Йоаким Триер

rating

В ролях:

Элли Харбоа, Кая Уилкинс, Хенрик Рафаелсен, Эллен Доррит Петерсен, Людвиг Альгебак, Изабель Кристин Андресен, Камилла Бельсвик, Ларс Берге, Ванесса Боргли, Сигве Бёэ

Описание:

Тельма поступает в университет и впервые начинает жить отдельно от родителей, гиперопекающих христиан. Девушка не поддается соблазнам, не пьет и не курит, но одному соблазну противостоять не может - ей очень нравится сокурсница Аня. Пробуждающиеся чувства и желания внезапно высвобождают ее пугающие тёмные способности. Когда подруга Тельмы пропадает, девушка осознает, что это может быть ее виной...

Качество: BDRip-AVC
Формат: MKV

Видео: 1024x428 (2.40:1), 23,976 fps, x264 ~1 427 kbps avg, 0.136 bit/pixel
Аудио: 48 kHz, AC3 Dolby Digital, 3/2 (L,C,R,l,r) + LFE ch, ~384.00 kbps avg | RUS (iTunes)
скриншот   скриншот   скриншот   скриншот   скриншот   скриншот  

Общее
Уникальный идентификатор : 223961384507302181134999475230497676382 (0xA87D64C8458E61619515402AA7159C5E)
Полное имя : E:\OlLanDGroup\Thelma.2017.BDRip(AVC).OlLanDGroup.mkv
Формат : Matroska
Версия формата : Version 2
Размер файла : 1,47 Гбайт
Продолжительность : 1 ч. 56 м.
Общий поток : 1812 Кбит/сек
Название фильма : Thelma.2017 #TorpedoUK#
Дата кодирования : UTC 2018-04-05 12:48:51
Программа кодирования : mkvmerge v7.8.0 ('River Man') 32bit built on Apr 3 2015 12:11:22
Библиотека кодирования : libebml v1.3.1 + libmatroska v1.4.2

Видео
Идентификатор : 1
Формат : AVC
Формат/Информация : Advanced Video Codec
Профиль формата : High@L4.1
Параметр CABAC формата : Да
Параметр ReFrames формата : 10 кадров
Идентификатор кодека : V_MPEG4/ISO/AVC
Продолжительность : 1 ч. 56 м.
Битрейт : 1429 Кбит/сек
Ширина : 1024 пикселя
Высота : 428 пикселей
Соотношение сторон : 2,40:1
Режим частоты кадров : Постоянный
Частота кадров : 23,976 (24000/1001) кадра/сек
Цветовое пространство : YUV
Субдискретизация насыщенности : 4:2:0
Битовая глубина : 8 бит
Тип развёртки : Прогрессивная
Бит/(Пиксели*Кадры) : 0.136
Размер потока : 1,13 Гбайт (77%)
Библиотека кодирования : x264 core 146 r2538 121396c
Настройки программы : cabac=1 / ref=10 / deblock=1:-3:-3 / analyse=0x3:0x133 / me=umh / subme=11 / psy=1 / psy_rd=0.99:0.06 / mixed_ref=1 / me_range=48 / chroma_me=1 / trellis=2 / 8x8dct=1 / cqm=0 / deadzone=21,11 / fast_pskip=1 / chroma_qp_offset=-3 / threads=6 / lookahead_threads=1 / sliced_threads=0 / nr=0 / decimate=1 / interlaced=0 / bluray_compat=0 / constrained_intra=0 / bframes=10 / b_pyramid=2 / b_adapt=2 / b_bias=0 / direct=3 / weightb=1 / open_gop=0 / weightp=2 / keyint=240 / keyint_min=23 / scenecut=40 / intra_refresh=0 / rc_lookahead=40 / rc=2pass / mbtree=0 / bitrate=1429 / ratetol=1.0 / qcomp=0.60 / qpmin=0 / qpmax=69 / qpstep=4 / cplxblur=20.0 / qblur=0.5 / vbv_maxrate=50000 / vbv_bufsize=62500 / nal_hrd=none / filler=0 / ip_ratio=1.40 / pb_ratio=1.30 / aq=1:1.00
Язык : English
Default : Да
Forced : Нет

Аудио
Идентификатор : 2
Формат : AC-3
Формат/Информация : Audio Coding 3
Расширение режима : CM (complete main)
Параметр Endianness формата : Big
Идентификатор кодека : A_AC3
Продолжительность : 1 ч. 56 м.
Вид битрейта : Постоянный
Битрейт : 384 Кбит/сек
Каналы : 6 каналов
Расположение каналов : Front: L C R, Side: L R, LFE
Частота : 48,0 КГц
Частота кадров : 31,250 кадров/сек (1536 spf)
Битовая глубина : 16 бит
Метод сжатия : С потерями
Размер потока : 320 Мбайт (21%)
Заголовок : iTunes
Язык : Russian
Default : Да
Forced : Нет

Текст #1
Идентификатор : 3
Формат : UTF-8
Идентификатор кодека : S_TEXT/UTF8
Идентификатор кодека/Информация : UTF-8 Plain Text
Заголовок : Forced
Язык : Russian
Default : Да
Forced : Нет

Текст #2
Идентификатор : 4
Формат : UTF-8
Идентификатор кодека : S_TEXT/UTF8
Идентификатор кодека/Информация : UTF-8 Plain Text
Заголовок : Full
Язык : Russian
Default : Нет
Forced : Нет

Текст #3
Идентификатор : 5
Формат : UTF-8
Идентификатор кодека : S_TEXT/UTF8
Идентификатор кодека/Информация : UTF-8 Plain Text
Заголовок : Full
Язык : English
Default : Нет
Forced : Нет

Меню
00:00:00.000 : en:00:00:00.000
00:11:14.257 : en:00:11:14.257
00:20:51.625 : en:00:20:51.625
00:30:28.326 : en:00:30:28.326
00:41:19.936 : en:00:41:19.936
00:47:49.909 : en:00:47:49.909
00:57:41.958 : en:00:57:41.958
01:13:14.640 : en:01:13:14.640
01:21:12.910 : en:01:21:12.910
01:30:13.241 : en:01:30:13.241
01:38:56.806 : en:01:38:56.806
01:49:27.019 : en:01:49:27.019

pb.wtf



Скачать Тельма через торрент http://lostpix.com/img/2018-04/05/y4548b7lnj0o4h754z18i5ua2.jpg Скачать фильм Тельма через торрент бесплантно в хорошем качестве Описание: Тельма поступает в университет и впервые начинает жить отдельно от родителей, гиперопекающих христиан. Девушка не поддается ... 8.8 10 12
Торрент: Зарегистрирован [2018-04-05 13:42] · скачан: 486 раз
Статус: √ проверено
Размер: 1.47 GB
Как cкачать? Как скачать Тельма через торрент | UTorrent

% Раздел Тема Автор DL S | L
Фильмы [HD 720p, 1080p] (Хороший звук DUB, MVO) [ 12.23 GB ] Тельма и Луиза / Thelma & Louise [1991 BDRip-HEVC 1080p] 3хMVO + 3хAVO RealOldGamer Скачать
3 | 0
Фильмы [HD 720p, 1080p] (Хороший звук DUB, MVO) [ 10.82 GB ] Тельма / Thelma [2017 BDRip 1080p] bober100 Скачать
1 | 0
Видео для КПК и Смартфонов [ 439 MB ] Тельма / Thelma [2017 HDRip КПК] Dub sergey82 Скачать
1 | 0
Фильмы (Blu-ray, BD-Remux, HDDVD) [ 35.21 GB ] Тельма / Thelma [2017 Blu-ray 1080p] - sheker187 Скачать
1 | 0
Фильмы 2017 [DVDrip, WEB-DLRip, HDrip] (DUB, MVO) [ 2.13 GB ] Тельма / Thelma [2017 BDRip] - Twi7ter Скачать
2 | 0
Фильмы 2017 [DVDrip, WEB-DLRip, HDrip] (DUB, MVO) [ 1.41 GB ] Тельма / Thelma [2017 BDRip] - Twi7ter Скачать
2 | 0
Фильмы 2017 [DVDrip, WEB-DLRip, HDrip] (DUB, MVO) [ 1.41 GB ] Тельма / Thelma [2017 BDRip] bober100 Скачать
2 | 0

28-11-2019 20:33  

Отключить всю рекламу на сайте

05-04-2018 18:22 Тельма Скачать торрент  

ей очень нравится сокурсница Аня.

Да европа.pb.wtf



    Дорогой пользователь! Огромная просьба, поблагодарите релизера, оцените раздачу и оставьте свои комментарий, если Вы скачали Тельма через торрент бесплатно! Внесите свою лепту в развитие PiratBit!
    Комментировать посты могут только пользователи прошедшие не сложную регистрацию
    Показать сообщения:    

    Тельма через торрент
    Скачать бесплатно Тельма
    Тельма скачать торрент
    Тельма смотреть онлайн
    Cкачать фильм Тельма бесплатно
    Тельма скачать торрент в хорошем качестве
    Тельма смотреть онлайн бесплатно в хорошем качестве


    Вы не можете начинать темы
    Вы не можете отвечать на сообщения
    Вы не можете редактировать свои сообщения
    Вы не можете удалять свои сообщения
    Вы не можете голосовать в опросах
    Вы не можете прикреплять файлы к сообщениям
    Вы можете скачивать файлы