Ссылка на приватное зеркало нашего сайта всего за 1$. Внимание количество ограничено!!!

2 сезон

iTunes

1 сезон

1

2 сезон

2 сезон

iTunes

1 сезон

RePack

30

Новинка

ВАЖНО

ИГРА 18+

pack

RePack

MK11
pack

Забери бонус

RePack

jed

!!Акция!!

Alien_Rage

RePack

fifa19

RePack

Assassins Creed: Odyssey

RePack

NEED FOR SPEED™ PAYBACK

4 сезон

9 сезон

Бесстыжие 9 сезон

Все сериалы

все сериалы на PB.wtf

RePack

FAR CRY 5
  

Марсель / Marseille / Сезон: 2 / Серии: 1-8 из 8 (Флорен Сири) [2018, Драма, WEBRip 720p] MVO [Jaskier] pb.wtf

Марсель через торрент pb.wtf

Размер: 8.2 GB | Добавлен: 2 года 8 мес. назад | Торрент скачан:6 раз
Скачать  

05-04-2018 13:48 Марсель Скачать торрент  

Марсель / MarseilleГод выпуска: 2018
Страна: Франция, США
Жанр: Драма
Продолжительность: ~00:44:00
Перевод: Профессиональный многоголосый | Jaskier
Субтитры: отсутствуют

Режиссер: Флорен Сири

rating

В ролях:

Жерар Депардьё, Бенуа Мажимель, Жеральдин Пайя, Надя Фарес, Стефани Кайлар, Ипполит Жирардо

Описание:

Сериал расскажет о погрязшем в коррупции мире французских политиков. Робер Таро может потерять нагретое за долгие годы у власти кресло мэра Марселя. Угроза исходит от главного противника на предстоящих выборах – молодого амбициозного политика, начинавшего свою политическую карьеру под крылом Таро.

Качество: WEBRip 720p
Формат: MKV

Видео: ~ 3000 kbps, 1280x720, 25 fps
Аудио#1 Rus: AC3, 6 ch, 384 kbps
Аудио#2 Fre: AC3, 6 ch, 384 kbps
скриншот   скриншот   скриншот  

Общее
Уникальный идентификатор : 184171062007982541354147529171743056590 (0x8A8E0E6B0EE0A442BFCA5BB06228A2CE)
Полное имя : D:\Marseille. Season 2 (WEBRip l 720p l Jaskier)\Marseille.s02e01.720p.WEBRip.DD5.1.x264-Jaskier.mkv
Формат : Matroska
Версия формата : Version 2
Размер файла : 1,12 Гбайт
Продолжительность : 53 м. 26 с.
Режим общего битрейта : Переменный
Общий поток : 2996 Кбит/сек
Дата кодирования : UTC 2018-04-05 13:03:49
Программа кодирования : mkvmerge v7.8.0 ('River Man') 32bit built on Apr 3 2015 12:11:22
Библиотека кодирования : libebml v1.3.1 + libmatroska v1.4.2

Видео
Идентификатор : 1
Формат : AVC
Формат/Информация : Advanced Video Codec
Профиль формата : Main@L3.1
Параметр CABAC формата : Да
Параметр RefFrames формата : 3 кадра
Идентификатор кодека : V_MPEG4/ISO/AVC
Продолжительность : 53 м. 26 с.
Вид битрейта : Переменный
Битрейт : 2260 Кбит/сек
Максимальный битрейт : 3390 Кбит/сек
Ширина : 1280 пикселей
Высота : 720 пикселей
Соотношение сторон : 16:9
Режим частоты кадров : Постоянный
Частота кадров : 25,000 кадров/сек
Цветовое пространство : YUV
Субдискретизация насыщенности : 4:2:0
Битовая глубина : 8 бит
Тип развёртки : Прогрессивная
Бит/(Пиксели*Кадры) : 0.098
Размер потока : 829 Мбайт (72%)
Библиотека кодирования : x264 core 148 r2714 2daf636
Настройки программы : cabac=1 / ref=3 / deblock=1:0:0 / analyse=0x1:0x111 / me=umh / subme=10 / psy=1 / psy_rd=1.00:0.00 / mixed_ref=1 / me_range=24 / chroma_me=1 / trellis=2 / 8x8dct=0 / cqm=0 / deadzone=21,11 / fast_pskip=1 / chroma_qp_offset=-2 / threads=6 / lookahead_threads=1 / sliced_threads=0 / nr=0 / decimate=1 / interlaced=0 / bluray_compat=0 / stitchable=1 / constrained_intra=0 / bframes=2 / b_pyramid=0 / b_adapt=2 / b_bias=0 / direct=3 / weightb=1 / open_gop=0 / weightp=2 / keyint=50 / keyint_min=26 / scenecut=0 / intra_refresh=0 / rc_lookahead=50 / rc=2pass / mbtree=1 / bitrate=2260 / ratetol=1.0 / qcomp=0.50 / qpmin=6 / qpmax=51 / qpstep=4 / cplxblur=20.0 / qblur=0.5 / vbv_maxrate=3390 / vbv_bufsize=4520 / nal_hrd=vbr / filler=0 / ip_ratio=1.40 / aq=1:1.00
Язык : English
Default : Да
Forced : Нет

Аудио #1
Идентификатор : 2
Формат : AC-3
Формат/Информация : Audio Coding 3
Расширение режима : CM (complete main)
Параметр Endianness формата : Big
Идентификатор кодека : A_AC3
Продолжительность : 53 м. 26 с.
Вид битрейта : Постоянный
Битрейт : 384 Кбит/сек
Каналы : 6 каналов
Расположение каналов : Front: L C R, Side: L R, LFE
Частота : 48,0 КГц
Частота кадров : 31,250 кадров/сек (1536 spf)
Метод сжатия : С потерями
Размер потока : 147 Мбайт (13%)
Заголовок : Jaskier
Язык : Russian
Default : Да
Forced : Нет

Аудио #2
Идентификатор : 3
Формат : AC-3
Формат/Информация : Audio Coding 3
Расширение режима : CM (complete main)
Параметр Endianness формата : Big
Идентификатор кодека : A_AC3
Продолжительность : 53 м. 26 с.
Вид битрейта : Постоянный
Битрейт : 384 Кбит/сек
Каналы : 6 каналов
Расположение каналов : Front: L C R, Side: L R, LFE
Частота : 48,0 КГц
Частота кадров : 31,250 кадров/сек (1536 spf)
Метод сжатия : С потерями
Размер потока : 147 Мбайт (13%)
Язык : French
Default : Нет
Forced : Нет

pb.wtf



Скачать Марсель через торрент http://i101.fastpic.ru/big/2018/0330/5c/e1481134f6d81e8919bd68244f71455c.png Скачать фильм Марсель через торрент бесплантно в хорошем качестве Описание: Сериал расскажет о погрязшем в коррупции мире французских политиков. Робер Таро может потерять нагретое за долгие годы у власти ... 10 10 2
Торрент: Зарегистрирован [2018-04-05 13:48] · скачан: 6 раз
Статус: √ проверено
Размер: 8.2 GB
Как cкачать? Как скачать Марсель через торрент | qTorrent

% Раздел Тема Автор DL S | L
Зарубежные сериалы [ 4.59 GB ] Марсель / Marseille / Сезон: 2 / Серии: 1-8 из 8 [2018 WEBRip] MVO [Jaskier] bober100 Скачать
1 | 0
Зарубежные сериалы [ 11.09 GB ] Марсель / Marseille / Сезон: 2 / Серии: 1-8 из 8 [2018 WEBRip 720p] MVO [BaibaKo] bober100 Скачать
1 | 0
Зарубежные сериалы [ 14.79 GB ] Марсель / Marseille / Сезон: 2 / Серии: 1-8 из 8 [2018 WEBRip 1080p] MVO [BaibaKo] bober100 Скачать
1 | 0

28-11-2019 20:33  

Отключить всю рекламу на сайте

    Дорогой пользователь! Огромная просьба, поблагодарите релизера, оцените раздачу и оставьте свои комментарий, если Вы скачали Марсель через торрент бесплатно! Внесите свою лепту в развитие PiratBit!
    Комментировать посты могут только пользователи прошедшие не сложную регистрацию
    Показать сообщения:    

    Марсель через торрент
    Скачать бесплатно Марсель
    Марсель скачать торрент
    Марсель смотреть онлайн
    Cкачать фильм Марсель бесплатно
    Марсель скачать торрент в хорошем качестве
    Марсель смотреть онлайн бесплатно в хорошем качестве


    Вы не можете начинать темы
    Вы не можете отвечать на сообщения
    Вы не можете редактировать свои сообщения
    Вы не можете удалять свои сообщения
    Вы не можете голосовать в опросах
    Вы не можете прикреплять файлы к сообщениям
    Вы можете скачивать файлы