Ссылка на приватное зеркало нашего сайта всего за 1$. Внимание количество ограничено!!!

2 сезон

iTunes

1 сезон

1

2 сезон

2 сезон

iTunes

1 сезон

RePack

30

Ultimate

ВАЖНО

ИГРА 18+

pack

RePack

MK11
pack

Забери бонус

RePack

jed

!!Акция!!

Alien_Rage

RePack

fifa19

RePack

Assassins Creed: Odyssey

RePack

NEED FOR SPEED™ PAYBACK

4 сезон

9 сезон

Бесстыжие 9 сезон

Все сериалы

все сериалы на PB.wtf

RePack

FAR CRY 5
  

Марсель / Marseille / Сезон: 2 / Серии: 1-8 из 8 (Флорен Сири) [2018, Драма, WEBRip] MVO [Jaskier] pb.wtf

Марсель через торрент pb.wtf

Размер: 4.59 GB | Добавлен: 2 года 7 мес. назад | Торрент скачан:3 раза
Скачать  

05-04-2018 13:52 Марсель Скачать торрент  

Марсель / MarseilleГод выпуска: 2018
Страна: Франция, США
Жанр: Драма
Продолжительность: ~00:44:00
Перевод: Профессиональный многоголосый | Jaskier
Субтитры: отсутствуют

Режиссер: Флорен Сири

rating

В ролях:

Жерар Депардьё, Бенуа Мажимель, Жеральдин Пайя, Надя Фарес, Стефани Кайлар, Ипполит Жирардо

Описание:

Сериал расскажет о погрязшем в коррупции мире французских политиков. Робер Таро может потерять нагретое за долгие годы у власти кресло мэра Марселя. Угроза исходит от главного противника на предстоящих выборах – молодого амбициозного политика, начинавшего свою политическую карьеру под крылом Таро.

Качество: WEBRip
Формат: AVI

Видео: ~ 1400 kbps, 720x400, 25 fps
Аудио#1 Rus: mp3, 48 KHz, 2 ch, 128 kbps
Аудио#2 Eng: mp3, 48 KHz, 2 ch, 128 kbps
скриншот   скриншот   скриншот  

Общее
Полное имя : D:\Marseille. Season 2 (WEBRip l 400p l Jaskier)\Marseille.s02e01.WEBRip.Rus.Fre.Jaskier.avi
Формат : AVI
Формат/Информация : Audio Video Interleave
Размер файла : 651 Мбайт
Продолжительность : 53 м. 26 с.
Общий поток : 1703 Кбит/сек
Программа кодирования : VirtualDubMod 1.5.10.3 | www.virtualdub-fr.org || (build 2550/release)
Библиотека кодирования : VirtualDubMod build 2550/release

Видео
Идентификатор : 0
Формат : MPEG-4 Visual
Профиль формата : Advanced Simple@L5
Параметр BVOP формата : 1
Параметр QPel формата : Нет
Параметр GMC формата : Без точки перехода
Параметр матрицы формата : Выборочная
Идентификатор кодека : XVID
Идентификатор кодека/Подсказка : XviD
Продолжительность : 53 м. 26 с.
Битрейт : 1432 Кбит/сек
Ширина : 720 пикселей
Высота : 400 пикселей
Соотношение сторон : 16:9
Частота кадров : 25,000 кадров/сек
Цветовое пространство : YUV
Субдискретизация насыщенности : 4:2:0
Битовая глубина : 8 бит
Тип развёртки : Прогрессивная
Метод сжатия : С потерями
Бит/(Пиксели*Кадры) : 0.199
Размер потока : 547 Мбайт (84%)
Библиотека кодирования : XviD 73

Аудио #1
Идентификатор : 1
Формат : MPEG Audio
Версия формата : Version 1
Профиль формата : Layer 3
Режим : Joint stereo
Расширение режима : MS Stereo
Идентификатор кодека : 55
Идентификатор кодека/Подсказка : MP3
Продолжительность : 53 м. 26 с.
Вид битрейта : Постоянный
Битрейт : 128 Кбит/сек
Каналы : 2 канала
Частота : 48,0 КГц
Метод сжатия : С потерями
Размер потока : 48,9 Мбайт (8%)
Выравнивание : Соединение по промежуткам
Продолжительность промежутка : 40 мс. (1,00 видеокадр)
Время предзагрузки промежутка : 504 мс.

Аудио #2
Идентификатор : 2
Формат : MPEG Audio
Версия формата : Version 1
Профиль формата : Layer 3
Режим : Joint stereo
Расширение режима : MS Stereo
Идентификатор кодека : 55
Идентификатор кодека/Подсказка : MP3
Продолжительность : 53 м. 26 с.
Вид битрейта : Постоянный
Битрейт : 128 Кбит/сек
Каналы : 2 канала
Частота : 48,0 КГц
Метод сжатия : С потерями
Размер потока : 48,9 Мбайт (8%)
Выравнивание : Соединение по промежуткам
Продолжительность промежутка : 40 мс. (1,00 видеокадр)
Время предзагрузки промежутка : 504 мс.

pb.wtf



Скачать Марсель через торрент http://i101.fastpic.ru/big/2018/0330/5c/e1481134f6d81e8919bd68244f71455c.png Скачать фильм Марсель через торрент бесплантно в хорошем качестве Описание: Сериал расскажет о погрязшем в коррупции мире французских политиков. Робер Таро может потерять нагретое за долгие годы у власти ... 7.8 10 4
Торрент: Зарегистрирован [2018-04-05 13:52] · скачан: 3 раз
Статус: √ проверено
Размер: 4.59 GB
Как cкачать? Как скачать Марсель через торрент | qTorrent

% Раздел Тема Автор DL S | L
Зарубежные сериалы [ 8.2 GB ] Марсель / Marseille / Сезон: 2 / Серии: 1-8 из 8 [2018 WEBRip 720p] MVO [Jaskier] bober100 Скачать
1 | 0
Зарубежные сериалы [ 11.09 GB ] Марсель / Marseille / Сезон: 2 / Серии: 1-8 из 8 [2018 WEBRip 720p] MVO [BaibaKo] bober100 Скачать
1 | 0
Зарубежные сериалы [ 14.79 GB ] Марсель / Marseille / Сезон: 2 / Серии: 1-8 из 8 [2018 WEBRip 1080p] MVO [BaibaKo] bober100 Скачать
1 | 0

28-11-2019 20:33  

Отключить всю рекламу на сайте

    Дорогой пользователь! Огромная просьба, поблагодарите релизера, оцените раздачу и оставьте свои комментарий, если Вы скачали Марсель через торрент бесплатно! Внесите свою лепту в развитие PiratBit!
    Комментировать посты могут только пользователи прошедшие не сложную регистрацию
    Показать сообщения:    

    Марсель через торрент
    Скачать бесплатно Марсель
    Марсель скачать торрент
    Марсель смотреть онлайн
    Cкачать фильм Марсель бесплатно
    Марсель скачать торрент в хорошем качестве
    Марсель смотреть онлайн бесплатно в хорошем качестве


    Вы не можете начинать темы
    Вы не можете отвечать на сообщения
    Вы не можете редактировать свои сообщения
    Вы не можете удалять свои сообщения
    Вы не можете голосовать в опросах
    Вы не можете прикреплять файлы к сообщениям
    Вы можете скачивать файлы