MEGA NEWS Получи личный уникальный адрес сайта и защити себя от блокировок. Внимание количество ограничено!!!

iTunes

1+1

iTunes

мы

iTunes

1

iTunes

Чернобыль

iTunes

Ральф против интернета

Лицензия

ПШазам

Лицензия

Игра престолов

Лицензия

30
pack

ВАЖНО

!!Акция!!

Alien_RageХит недели

RePack

Resident Evil 21

ИГРА 18+

pack

RePack

Metro:Exodus

!!Акция!!

Alien_Rage

RePack

fifa19

RePack

Assassins Creed: Odyssey

RePack

NEED FOR SPEED™ PAYBACK

3 сезон

9 сезон

Бесстыжие 9 сезон

Все сериалы

все сериалы на PB.wtf

RePack

FAR CRY 5
Ребята, катастрофически не хватает 1900р. для оплаты серверов за АВГУСТ (всвязи с блокировками трафик упал в 3 раза), 1-2р., выручайте.
  

Миллионер из трущоб / Slumdog Millionaire (Дэнни Бойл, Лавлин Тандан) [2008 г., Драма, Мелодрама, Экранизация, BDRip 720p / 60 FPS, Dub, AVO, Original] pb.wtf

Миллионер из трущоб через торрент pb.wtf

Раздают: 8 [ 1 MB/s ] Качают: 3 [ 0 KB/s ]
Размер: 10.65 GB | Добавлен: 1 год 6 мес. назад | Торрент скачан:112 раз
Скачать  

05-04-2018 15:11 Миллионер из трущоб Скачать торрент  

Миллионер из трущоб / Slumdog Millionaire
Год выпуска: 2008
Страна: Великобритания
Жанр: Драма, Мелодрама, Экранизация
Продолжительность: 02:00:04
Перевод: Dub, AVO, Original
Субтитры: Русские (полные), Английские (полные)

Режиссер: Дэнни Бойл, Лавлин Тандан

rating

В ролях: Дев Патель, Фрида Пинто, Мадхур Митталь, Анил Капур, Ирфан Кхан, Саубрабх Шукла, Ражендранат Зутши, Женева Талвар, Азхарудин Моххамед Исмаил, Ауш Махеш Хедекар, Сунил Кумар Агравал, Сарфараз Кхан

Описание: Джамал Малик, 18-летний сирота из трущоб в Мумбаи, всего в одном шаге от победы в телеигре «Кто хочет стать миллионером?» и выигрыша 20 миллионов рупий. Прервав игру, его арестовывает полиция по подозрению в мошенничестве. Откуда юнец, выросший на улице, может знать так много? Экранизация по произведению: Викас Сваруп «Вопрос-ответ».

Качество: BDRip 720p / 60 FPS
Формат: MKV
Видео кодек: H.264
Аудио кодек: AC3
Видео: AVC, 1280x528 (2.40:1), 11000 kbps, 60.000 fps, 0.270 bpp
Аудио#1: AC3 / 5.1 / 48 kHz / 640 kbps / 16 bit | DUB - Blu-ray CEE
Аудио#2: AC3 / 5.1 / 48 kHz / 448 kbps / 16 bit | AVO - Сербин
Аудио#3: AC3 / 5.1 / 48 kHz / 640 kbps / 16 bit | Original
General
Unique ID : 261229521986097687304020854378743584900 (0xC486F9D2F352E547DACDBFE77425D884)
Complete name : A:\Миллионер из трущоб BDRip 720p 60fps.mkv
Format : Matroska
Format version : Version 4 / Version 2
File size : 10.7 GiB
Duration : 2 h 0 min
Overall bit rate : 12.7 Mb/s
Movie name : Миллионер из трущоб (2008) by Tiberiumsun69
Encoded date : UTC 2018-04-05 14:46:55
Writing application : mkvmerge v20.0.0 ('I Am The Sun') 64-bit
Writing library : libebml v1.3.5 + libmatroska v1.4.8

Video
ID : 1
Format : AVC
Format/Info : Advanced Video Codec
Format profile : High@L4.1
Format settings : CABAC / 12 Ref Frames
Format settings, CABAC : Yes
Format settings, ReFrames : 12 frames
Codec ID : V_MPEG4/ISO/AVC
Duration : 2 h 0 min
Bit rate : 11.0 Mb/s
Width : 1 280 pixels
Height : 528 pixels
Display aspect ratio : 2.40:1
Frame rate mode : Constant
Frame rate : 60.000 FPS
Color space : YUV
Chroma subsampling : 4:2:0
Bit depth : 8 bits
Scan type : Progressive
Bits/(Pixel*Frame) : 0.270
Stream size : 9.20 GiB (86%)
Writing library : x264 core 146 r2538 121396c
Encoding settings : cabac=1 / ref=12 / deblock=1:-2:-2 / analyse=0x3:0x133 / me=umh / subme=10 / psy=1 / psy_rd=1.00:0.00 / mixed_ref=1 / me_range=32 / chroma_me=1 / trellis=2 / 8x8dct=1 / cqm=0 / deadzone=21,11 / fast_pskip=0 / chroma_qp_offset=-2 / threads=12 / lookahead_threads=2 / sliced_threads=0 / nr=0 / decimate=1 / interlaced=0 / bluray_compat=0 / constrained_intra=0 / bframes=8 / b_pyramid=2 / b_adapt=2 / b_bias=0 / direct=3 / weightb=1 / open_gop=0 / weightp=2 / keyint=250 / keyint_min=25 / scenecut=40 / intra_refresh=0 / rc_lookahead=60 / rc=crf / mbtree=0 / crf=17.0 / qcomp=0.80 / qpmin=0 / qpmax=69 / qpstep=4 / vbv_maxrate=62500 / vbv_bufsize=78125 / crf_max=0.0 / nal_hrd=none / filler=0 / ip_ratio=1.40 / pb_ratio=1.30 / aq=1:1.00
Language : English
Default : Yes
Forced : No

Audio #1
ID : 2
Format : AC-3
Format/Info : Audio Coding 3
Codec ID : A_AC3
Duration : 2 h 0 min
Bit rate mode : Constant
Bit rate : 640 kb/s
Channel(s) : 6 channels
Channel positions : Front: L C R, Side: L R, LFE
Sampling rate : 48.0 kHz
Frame rate : 31.250 FPS (1536 SPF)
Bit depth : 16 bits
Compression mode : Lossy
Stream size : 550 MiB (5%)
Title : Дубляж
Language : Russian
Service kind : Complete Main
Default : Yes
Forced : No

Audio #2
ID : 3
Format : AC-3
Format/Info : Audio Coding 3
Codec ID : A_AC3
Duration : 2 h 0 min
Bit rate mode : Constant
Bit rate : 448 kb/s
Channel(s) : 6 channels
Channel positions : Front: L C R, Side: L R, LFE
Sampling rate : 48.0 kHz
Frame rate : 31.250 FPS (1536 SPF)
Bit depth : 16 bits
Compression mode : Lossy
Stream size : 385 MiB (4%)
Title : AVO - Сербин
Language : Russian
Service kind : Complete Main
Default : No
Forced : No

Audio #3
ID : 4
Format : AC-3
Format/Info : Audio Coding 3
Codec ID : A_AC3
Duration : 2 h 0 min
Bit rate mode : Constant
Bit rate : 640 kb/s
Channel(s) : 6 channels
Channel positions : Front: L C R, Side: L R, LFE
Sampling rate : 48.0 kHz
Frame rate : 31.250 FPS (1536 SPF)
Bit depth : 16 bits
Compression mode : Lossy
Stream size : 550 MiB (5%)
Title : Оригинал
Language : English
Service kind : Complete Main
Default : No
Forced : No

Text #1
ID : 5
Format : UTF-8
Codec ID : S_TEXT/UTF8
Codec ID/Info : UTF-8 Plain Text
Duration : 1 h 51 min
Bit rate : 59 b/s
Count of elements : 1081
Stream size : 48.4 KiB (0%)
Title : Full
Language : Russian
Default : No
Forced : No

Text #2
ID : 6
Format : UTF-8
Codec ID : S_TEXT/UTF8
Codec ID/Info : UTF-8 Plain Text
Duration : 1 h 58 min
Bit rate : 33 b/s
Count of elements : 1007
Stream size : 29.3 KiB (0%)
Title : Full
Language : English
Default : No
Forced : No

Menu
00:00:00.000 : en:Chapter 1
00:09:20.935 : en:Chapter 2
00:20:26.975 : en:Chapter 3
00:28:14.734 : en:Chapter 4
00:37:57.608 : en:Chapter 5
00:46:08.557 : en:Chapter 6
00:52:03.995 : en:Chapter 7
01:01:58.256 : en:Chapter 8
01:07:21.704 : en:Chapter 9
01:12:18.625 : en:Chapter 10
01:17:52.668 : en:Chapter 11
01:24:22.474 : en:Chapter 12
01:33:07.206 : en:Chapter 13
01:39:33.092 : en:Chapter 14
01:48:49.356 : en:Chapter 15
01:52:55.977 : en:Chapter 16
Просьба к переливающим на другие сайты, в оформлении указывайте пожалуйста авторство группы Ссылка на биткоин кошелек - 1DWGvzWwL9gYLWXkozc7RAoU6KmFnCsWsi Авторская группа в ВК
pb.wtf



Скачать Миллионер из трущоб через торрент http://i57.fastpic.ru/big/2014/0101/fa/9407cdb2915a45ee131ec85bafcbc5fa.jpg Скачать фильм Миллионер из трущоб через торрент бесплантно в хорошем качестве Описание: Джамал Малик, 18-летний сирота из трущоб в Мумбаи, всего в одном шаге от победы в телеигре «Кто хочет стать миллионером?» и ... 9.7 10 7
Info! Золотая раздача, скачанное не засчитывается.
Торрент: Зарегистрирован [2018-04-05 15:12] · скачан: 112 раз
Статус: √ проверено
Размер: 10.65 GB
Как cкачать? Как скачать Миллионер из трущоб через торрент | qTorrent

% Раздел Тема Автор DL S | L
Фильмы 2006-2008 [ 2.93 GB ] Миллионер из трущоб / Slumdog Millionaire [2008 BDRip] DUB [Пифагор] + AVO [Сербин] + [Original] anton210896 Скачать
1 | 0
Фильмы [HD 720p, 1080p] (Хороший звук DUB, MVO) [ 13.6 GB ] Миллионер из трущоб / Slumdog Millionaire [2008 BDRip 1080p by msltel] DUB AVO msltel Скачать
1 | 0
Фильмы [HD 720p, 1080p] (Хороший звук DUB, MVO) [ 5.2 GB ] Миллионер из трущоб / Slumdog Millionaire [2008 BDRip 720p by msltel] DUB AVO msltel Скачать
1 | 0
Фильмы [HD 720p, 1080p] (Хороший звук DUB, MVO) [ 11.57 GB ] Миллионер из трущоб / Slumdog Millionaire [2008 BDRip 1080р ] -=DANTE=- Скачать
1 | 0
Фильмы с авторской озвучкой [ 1.45 GB ] Миллионер из трущоб / Slumdog Millionaire [2008 DVDRip] [AVO] killermax2013 Скачать
1 | 0
Фильмы 2006-2008 [ 2.91 GB ] Миллионер из трущоб / Slumdog Millionaire [2008 BDRip-AVC] Dub + Original + Sub potroks Скачать
2 | 0
Фильмы 2006-2008 [ 1.36 GB ] Миллионер из трущоб / Slumdog Millionaire [2008 Мело DVDRip] paul08 Скачать
1 | 0


Последний раз редактировалось: Tiberiumsun69 (2018-04-06 05:07), всего редактировалось 1 раз


>> Регистрируемся здесь <<






Отзывы и комментарии о схеме читаем и пишем здесь: ---> Отзывы и комментарии о схеме

Новые благодарочки в телеграм довольных пользователей:
скриншот   скриншот   скриншот   скриншот   скриншот

05-04-2018 15:12 Миллионер из трущоб Скачать торрент  

Всем приятного просмотра.pb.wtf



06-04-2018 11:20 Миллионер из трущоб Скачать торрент  

это мегакино. обязательно смотреть.pb.wtf



    Дорогой пользователь! Огромная просьба, поблагодарите релизера, оцените раздачу и оставьте свои комментарий, если Вы скачали Миллионер из трущоб через торрент бесплатно! Внесите свою лепту в развитие PiratBit!
    Комментировать посты могут только пользователи прошедшие не сложную регистрацию
    Показать сообщения:    

    Миллионер из трущоб через торрент
    Скачать бесплатно Миллионер из трущоб
    Миллионер из трущоб скачать торрент
    Миллионер из трущоб смотреть онлайн
    Cкачать фильм Миллионер из трущоб бесплатно
    Миллионер из трущоб скачать торрент в хорошем качестве
    Миллионер из трущоб смотреть онлайн бесплатно в хорошем качестве


    Вы не можете начинать темы
    Вы не можете отвечать на сообщения
    Вы не можете редактировать свои сообщения
    Вы не можете удалять свои сообщения
    Вы не можете голосовать в опросах
    Вы не можете прикреплять файлы к сообщениям
    Вы можете скачивать файлы