Ссылка на приватное зеркало нашего сайта всего за 1$. Внимание количество ограничено!!!

2 сезон

iTunes

1 сезон

1

iTunes

iTunes

iTunes

1 сезон

RePack

30

ИГРА 18+

pack

ВАЖНО

!!Акция!!

Alien_RageХит недели

RePack

MK11
pack

Забери бонус

RePack

jed

!!Акция!!

Alien_Rage

RePack

fifa19

RePack

Assassins Creed: Odyssey

RePack

NEED FOR SPEED™ PAYBACK

4 сезон

9 сезон

Бесстыжие 9 сезон

Все сериалы

все сериалы на PB.wtf

RePack

FAR CRY 5
  

Одна жизнь на двоих / Чёрно-белый танец / Сезон: 1 / Серии: 1-16 из 16 (Рауф Кубаев) [2018, Семейная сага, драма, мелодрама, WEB-DLRip] pb.wtf

Одна жизнь на двоих через торрент pb.wtf

Размер: 10.15 GB | Добавлен: 2 года 6 мес. назад | Торрент скачан:66 раз
Скачать  

05-04-2018 20:38 Одна жизнь на двоих Скачать торрент  

Одна жизнь на двоих / Чёрно-белый танецГод выпуска: 2018
Страна: Россия
Жанр: Семейная сага, драма, мелодрама
Продолжительность: ~ 00:50:00
Субтитры: отсутствуют

Режиссер: Рауф Кубаев



В ролях:

Артём Крылов, Алиса Лозовская, Екатерина Панасюк, Анна Каменкова, Татьяна Лютаева, Александр Зельский, Борис Чистяков, Константин Воробьёв, Сергей Паршин, Виктория Малекторович, Егор Кутенков, Анастасия Чистякова, Анна Лапина, Анна Карелина, Юлия Марченко, Вячеслав Савицкий, Алла Еминцева, Юрий Елагин, Егор Бакулин, Светлана Бакулина, Виталий Олечкин

Описание:

По бестселлеру Анны и Сергея Литвиновых «Черно-белый танец». История любви, существующей вопреки всему. История предательства и прощения. Три судьбы сплелись в роковой треугольник перед второй мировой, которая растоптала и уничтожила все их планы и надежды. Чувства пережили страшную войну и разлуку, но стали лишь сильней. Настолько, что снова и снова повторяются: и в следующем поколении, и даже в благополучной эпохе 80-х, когда уже не дети, а внуки вынуждены испытать на себе и любовь, и ненависть длиной в полвека, чтобы понять, каково это — прожить «Одну жизнь на двоих». История начинается в 1941-м году и завершается в 1980-е, охватывая четыре драматические эпохи в жизни страны: внешне благополучную предвоенную жизнь с пугающей изнанкой репрессий и доносов, страшную войну, послевоенную разруху и спокойное двадцатилетие 60-80-х.

Качество: WEB-DLRip
Формат: AVI

Видео: XviD ~ 1600 Кбит/с, 720x400
Аудио: AC3, 2 ch, 192 Кбит/с
скриншот   скриншот   скриншот  

Общее
Полное имя : D:\Одна жизнь на двоих..2018.WEB-DLRip.Files-x\01.Одна жизнь на двоих..2018.WEB-DLRip.Files-x.avi
Формат : AVI
Формат/Информация : Audio Video Interleave
Размер файла : 650 Мбайт
Продолжительность : 50 м. 45 с.
Общий поток : 1792 Кбит/сек
Программа кодирования : VirtualDubMod 1.5.10.3 | www.virtualdub-fr.org || (build 2550/release)
Библиотека кодирования : VirtualDubMod build 2550/release

Видео
Идентификатор : 0
Формат : MPEG-4 Visual
Профиль формата : Advanced Simple@L5
Параметр BVOP формата : 1
Параметр QPel формата : Нет
Параметр GMC формата : Без точки перехода
Параметр матрицы формата : Выборочная
Идентификатор кодека : XVID
Идентификатор кодека/Подсказка : XviD
Продолжительность : 50 м. 45 с.
Битрейт : 1590 Кбит/сек
Ширина : 720 пикселей
Высота : 400 пикселей
Соотношение сторон : 16:9
Частота кадров : 25,000 кадров/сек
Цветовое пространство : YUV
Субдискретизация насыщенности : 4:2:0
Битовая глубина : 8 бит
Тип развёртки : Прогрессивная
Метод сжатия : С потерями
Бит/(Пиксели*Кадры) : 0.221
Размер потока : 577 Мбайт (89%)
Библиотека кодирования : XviD 73

Аудио
Идентификатор : 1
Формат : AC-3
Формат/Информация : Audio Coding 3
Расширение режима : CM (complete main)
Параметр Endianness формата : Big
Идентификатор кодека : 2000
Продолжительность : 50 м. 45 с.
Вид битрейта : Постоянный
Битрейт : 192 Кбит/сек
Каналы : 2 канала
Расположение каналов : Front: L R
Частота : 48,0 КГц
Частота кадров : 31,250 кадров/сек (1536 spf)
Метод сжатия : С потерями
Размер потока : 69,7 Мбайт (11%)
Выравнивание : Разделение по промежуткам
Продолжительность промежутка : 40 мс. (1,00 видеокадр)
Время предзагрузки промежутка : 500 мс.

pb.wtf



Скачать Одна жизнь на двоих через торрент https://i102.fastpic.ru/big/2018/0326/6f/e55ec9fdf507810cf53f6bda4393dd6f.jpg Скачать фильм Одна жизнь на двоих через торрент бесплантно в хорошем качестве Описание: По бестселлеру Анны и Сергея Литвиновых «Черно-белый танец». История любви, существующей вопреки всему. История предательства и ... 10 10 4
Торрент: Зарегистрирован [2018-04-05 20:38] · скачан: 66 раз
Статус: √ проверено
Размер: 10.15 GB
Как cкачать? Как скачать Одна жизнь на двоих через торрент | qTorrent

% Раздел Тема Автор DL S | L
Наши сериалы [ 10.58 GB ] Одна жизнь на двоих / Чёрно-белый танец / Сезон: 1 / Серии: 1-16 из 16 [2018 Семейная сага WEB-DLRip-AVC] bober100 Скачать
1 | 0

28-11-2019 20:33  

Отключить всю рекламу на сайте

    Дорогой пользователь! Огромная просьба, поблагодарите релизера, оцените раздачу и оставьте свои комментарий, если Вы скачали Одна жизнь на двоих через торрент бесплатно! Внесите свою лепту в развитие PiratBit!
    Комментировать посты могут только пользователи прошедшие не сложную регистрацию
    Показать сообщения:    

    Одна жизнь на двоих через торрент
    Скачать бесплатно Одна жизнь на двоих
    Одна жизнь на двоих скачать торрент
    Одна жизнь на двоих смотреть онлайн
    Cкачать фильм Одна жизнь на двоих бесплатно
    Одна жизнь на двоих скачать торрент в хорошем качестве
    Одна жизнь на двоих смотреть онлайн бесплатно в хорошем качестве


    Вы не можете начинать темы
    Вы не можете отвечать на сообщения
    Вы не можете редактировать свои сообщения
    Вы не можете удалять свои сообщения
    Вы не можете голосовать в опросах
    Вы не можете прикреплять файлы к сообщениям
    Вы можете скачивать файлы