2 сезон

iTunes

MVO

1

2 сезон

iTunes

iTunes

1 сезон

RePack

30

Ultimate

ВАЖНО

ИГРА 18+

pack

RePack

MK11
pack

Легкие деньги

RePack

jed

RePack

fifa19

RePack

RDR2

RePack

NEED FOR SPEED™ PAYBACK

4 сезон

9 сезон

Бесстыжие 9 сезон

Все сериалы

все сериалы на PB.wtf

RePack

FAR CRY 5

Anonymous, доброе утро, мы не успеваем собрать деньги на оплату серверов за декабрь и январь, помогите нам пожалуйста в это трудное время. В качестве благодарности мы отключим Вам всю рекламу на сайте (укажите свой ник в строку Ваше имя)!

×
  
Magnet ссылка

Величайший шоумен / The Greatest Showman (Майкл Грэйси) [2017, драма, биография, мюзикл, BDRip-AVC] DUB [iTunes] pb.wtf

Величайший шоумен через торрент pb.wtf

Размер: 1.41 GB | Добавлен: 2 года 9 мес. назад | Торрент скачан:231 раз
Скачать  

06-04-2018 01:53 Величайший шоумен Скачать торрент  

Величайший шоумен / The Greatest Showman
Год выпуска: 2017
Страна: США
Жанр: драма, биография, мюзикл
Продолжительность: 01:44:49
Перевод: Дублированный | iTunes
Субтитры: Русские, английские

Режиссер: Майкл Грэйси

rating[

В ролях:


Хью Джекман (P.T. Barnum), Зак Эфрон (Phillip Carlyle), Мишель Уильямс (Charity Barnum), Ребекка Фергюсон (Jenny Lind), Зендея (Anne Wheeler), Кила Сеттл (Lettie Lutz), Яхья Абдул-Матин II (W.D. Wheeler), Остин Джонсон (Caroline Barnum), Эллис Рубин (Young Barnum), Скайлар Данн (Young Charity), Кэмерон Сили (Helen Barnum), Сэм Хамфри (Tom Thumb)
Описание:

Финеас Тейлор Барнум всегда мечтал войти в историю, но все его занятия не приносили ему удовольствия. И когда, казалось, весь мир обернулся против него, он решает пойти вслед за своей мечтой. Барнум создает завораживающее представление-сенсацию, которое стало рождением мирового шоу-бизнеса. Будучи никем и не имея ничего, он создал свой цирк и сделал его самым известным гастролирующим цирком в США, известность которого вышла далеко за пределы Американского континента. Во многом именно Финеас начал показывать людей с очень специфической внешностью (так называемое шоу уродов - «freakshow») и зарабатывать на этом деньги. У него были и сиамские близнецы, и человек с волосами на лице, и даже женщина-великанша. Много раз его цирк и построенные им музеи сгорали, но это его никогда не останавливало.

Биографическая драма-мюзикл снята режиссером Майклом Грейси, для которого данный фильм является дебютом в режиссерской карьере.

Качество: BDRip-AVC
Формат: MKV

Видео: 720x300 (2.40:1), 23,976 fps, x264 ~1 544 kbps avg, 0.298 bit/pixel
Аудио: 48 kHz, AC3 Dolby Digital, 3/2 (L,C,R,l,r) + LFE ch, ~384.00 kbps avg | RUS (iTunes)
скриншот   скриншот   скриншот   скриншот   скриншот  

Общее
Уникальный идентификатор : 196148895878144959259594542748353887280 (0x9390E738F7F3FE1DBB0054061AF6FC30)
Полное имя : E:\OlLanDGroup\The.Greatest.Showman.2017.BDRip(AVC).OlLanDGroup.mkv
Формат : Matroska
Версия формата : Version 2
Размер файла : 1,41 Гбайт
Продолжительность : 1 ч. 44 м.
Общий поток : 1930 Кбит/сек
Название фильма : The.Greatest.Showman.2017 #TorpedoUK#
Дата кодирования : UTC 2018-04-06 00:00:32
Программа кодирования : mkvmerge v7.8.0 ('River Man') 32bit built on Apr 3 2015 12:11:22
Библиотека кодирования : libebml v1.3.1 + libmatroska v1.4.2
Обложка : Yes
Attachments : cover.jpg / cover_land.jpg / small_cover.jpg / small_cover_land.jpg

Видео
Идентификатор : 1
Формат : AVC
Формат/Информация : Advanced Video Codec
Профиль формата : High@L4.1
Параметр CABAC формата : Да
Параметр ReFrames формата : 10 кадров
Идентификатор кодека : V_MPEG4/ISO/AVC
Продолжительность : 1 ч. 44 м.
Битрейт : 1544 Кбит/сек
Ширина : 720 пикселей
Высота : 300 пикселей
Соотношение сторон : 2,40:1
Режим частоты кадров : Постоянный
Частота кадров : 23,976 (24000/1001) кадра/сек
Цветовое пространство : YUV
Субдискретизация насыщенности : 4:2:0
Битовая глубина : 8 бит
Тип развёртки : Прогрессивная
Бит/(Пиксели*Кадры) : 0.298
Размер потока : 1,10 Гбайт (78%)
Библиотека кодирования : x264 core 146 r2538 121396c
Настройки программы : cabac=1 / ref=10 / deblock=1:-2:-3 / analyse=0x3:0x133 / me=umh / subme=11 / psy=1 / psy_rd=0.97:0.07 / mixed_ref=1 / me_range=48 / chroma_me=1 / trellis=2 / 8x8dct=1 / cqm=0 / deadzone=21,11 / fast_pskip=1 / chroma_qp_offset=-3 / threads=6 / lookahead_threads=1 / sliced_threads=0 / nr=0 / decimate=1 / interlaced=0 / bluray_compat=0 / constrained_intra=0 / bframes=10 / b_pyramid=2 / b_adapt=2 / b_bias=0 / direct=3 / weightb=1 / open_gop=0 / weightp=2 / keyint=240 / keyint_min=23 / scenecut=40 / intra_refresh=0 / rc_lookahead=40 / rc=2pass / mbtree=0 / bitrate=1544 / ratetol=1.0 / qcomp=0.60 / qpmin=0 / qpmax=69 / qpstep=4 / cplxblur=20.0 / qblur=0.5 / vbv_maxrate=50000 / vbv_bufsize=62500 / nal_hrd=none / filler=0 / ip_ratio=1.40 / pb_ratio=1.30 / aq=1:1.00
Default : Да
Forced : Нет

Аудио
Идентификатор : 2
Формат : AC-3
Формат/Информация : Audio Coding 3
Расширение режима : CM (complete main)
Параметр Endianness формата : Big
Идентификатор кодека : A_AC3
Продолжительность : 1 ч. 44 м.
Вид битрейта : Постоянный
Битрейт : 384 Кбит/сек
Каналы : 6 каналов
Расположение каналов : Front: L C R, Side: L R, LFE
Частота : 48,0 КГц
Частота кадров : 31,250 кадров/сек (1536 spf)
Битовая глубина : 16 бит
Метод сжатия : С потерями
Размер потока : 288 Мбайт (20%)
Заголовок : Lic
Язык : Russian
Default : Да
Forced : Нет

Текст #1
Идентификатор : 3
Формат : UTF-8
Идентификатор кодека : S_TEXT/UTF8
Идентификатор кодека/Информация : UTF-8 Plain Text
Заголовок : Forced
Язык : Russian
Default : Да
Forced : Нет

Текст #2
Идентификатор : 4
Формат : UTF-8
Идентификатор кодека : S_TEXT/UTF8
Идентификатор кодека/Информация : UTF-8 Plain Text
Заголовок : Full
Язык : Russian
Default : Нет
Forced : Нет

Текст #3
Идентификатор : 5
Формат : UTF-8
Идентификатор кодека : S_TEXT/UTF8
Идентификатор кодека/Информация : UTF-8 Plain Text
Заголовок : Full
Язык : English
Default : Нет
Forced : Нет

Текст #4
Идентификатор : 6
Формат : UTF-8
Идентификатор кодека : S_TEXT/UTF8
Идентификатор кодека/Информация : UTF-8 Plain Text
Заголовок : SDH
Язык : English
Default : Нет
Forced : Нет

Меню
00:00:00.000 : en:Chapter 01
00:03:21.618 : en:Chapter 02
00:11:33.901 : en:Chapter 03
00:16:21.313 : en:Chapter 04
00:21:13.397 : en:Chapter 05
00:25:04.085 : en:Chapter 06
00:32:10.053 : en:Chapter 07
00:36:09.417 : en:Chapter 08
00:41:38.412 : en:Chapter 09
00:44:41.053 : en:Chapter 10
00:48:23.901 : en:Chapter 11
00:53:11.062 : en:Chapter 12
00:56:20.668 : en:Chapter 13
01:01:34.524 : en:Chapter 14
01:07:33.883 : en:Chapter 15
01:12:00.983 : en:Chapter 16
01:18:23.448 : en:Chapter 17
01:22:07.130 : en:Chapter 18
01:29:04.797 : en:Chapter 19
01:37:09.573 : en:Chapter 20

pb.wtf



Скачать Величайший шоумен через торрент http://pic1.kartinco.top/images/11/dojg2.jpg Скачать фильм Величайший шоумен через торрент бесплантно в хорошем качестве Описание: Финеас Тейлор Барнум всегда мечтал войти в историю, но все его занятия не приносили ему удовольствия. И когда, казалось, весь мир ... 10 10 6
Торрент: Зарегистрирован [2018-04-06 01:53] · скачан: 231 раз
Статус: √ проверено
Размер: 1.41 GB
Как cкачать? Как скачать Величайший шоумен через торрент | UTorrent

% Раздел Тема Автор DL S | L
Ultra HD (UHD: 2K, 4K, 8K) — видео сверхвысокой чёткости [ 58.78 GB ] Величайший шоумен / The Greatest Showman [2017 биография мюзикл UHD Blu-ray 2160p] DUB sheker187 Скачать
1 | 0
Ultra HD (UHD: 2K, 4K, 8K) — видео сверхвысокой чёткости [ 50.47 GB ] Величайший шоумен / The Greatest Showman [2017 биография мюзикл UHD BDRemux 2160p] DUB sheker187 Скачать
1 | 0
Фильмы 2017 [DVDrip, WEB-DLRip, HDrip] (DUB, MVO) [ 1.87 GB ] Величайший шоумен / The Greatest Showman [2017 биография мюзикл BDRip-AVC] () - ExKinoRay Enigma2010 Скачать
1 | 0
Фильмы [HD 720p, 1080p] (Хороший звук DUB, MVO) [ 8.05 GB ] Величайший шоумен / The Greatest Showman [2017 биография мюзикл BDRip 1080p] DUB [] bober100 Скачать
1 | 0
Ultra HD (UHD: 2K, 4K, 8K) — видео сверхвысокой чёткости [ 13.9 GB ] Величайший шоумен / The Greatest Showman [2017 биография мюзикл UHD BDRip 2160p] DUB [] bober100 Скачать
1 | 0
Фильмы (Blu-ray, BD-Remux, HDDVD) [ 22.34 GB ] Величайший шоумен / The Greatest Showman [2017 биография мюзикл BD Remux 1080p] DUB [] bober100 Скачать
1 | 0
Фильмы 2017 [DVDrip, WEB-DLRip, HDrip] (DUB, MVO) [ 746 MB ] Величайший шоумен / The Greatest Showman [2017 биография мюзикл HDRip] DUB [] bober100 Скачать
1 | 0

28-11-2019 20:33  

Отключить всю рекламу на сайте

    Дорогой пользователь! Огромная просьба, поблагодарите релизера, оцените раздачу и оставьте свои комментарий, если Вы скачали Величайший шоумен через торрент бесплатно! Внесите свою лепту в развитие PiratBit!
    Комментировать посты могут только пользователи прошедшие не сложную регистрацию
    Показать сообщения:    

    Величайший шоумен через торрент
    Скачать бесплатно Величайший шоумен
    Величайший шоумен скачать торрент
    Величайший шоумен смотреть онлайн
    Cкачать фильм Величайший шоумен бесплатно
    Величайший шоумен скачать торрент в хорошем качестве
    Величайший шоумен смотреть онлайн бесплатно в хорошем качестве


    Вы не можете начинать темы
    Вы не можете отвечать на сообщения
    Вы не можете редактировать свои сообщения
    Вы не можете удалять свои сообщения
    Вы не можете голосовать в опросах
    Вы не можете прикреплять файлы к сообщениям
    Вы можете скачивать файлы