Ссылка на приватное зеркало нашего сайта всего за 1$. Внимание количество ограничено!!!

2 сезон

iTunes

1 сезон

1

iTunes

iTunes

iTunes

1 сезон

RePack

30

ИГРА 18+

pack

ВАЖНО

!!Акция!!

Alien_RageХит недели

RePack

MK11
pack

Забери бонус

RePack

jed

!!Акция!!

Alien_Rage

RePack

fifa19

RePack

Assassins Creed: Odyssey

RePack

NEED FOR SPEED™ PAYBACK

4 сезон

9 сезон

Бесстыжие 9 сезон

Все сериалы

все сериалы на PB.wtf

RePack

FAR CRY 5
  

Сувенир из Одессы / Сезон: 1 / Серии: 1-12 из 12 (Олег Туранский) [2018, Приключенческая драма, криминал, SATRip-AVC] pb.wtf

Сувенир из Одессы через торрент pb.wtf

Размер: 6.14 GB | Добавлен: 2 года 6 мес. назад | Торрент скачан:89 раз
Скачать  

06-04-2018 02:10 Сувенир из Одессы Скачать торрент  

Сувенир из ОдессыГод выпуска: 2018
Страна: Украина, Россия
Жанр: Приключенческая драма, криминал
Продолжительность: ~ 00:45:00
Перевод: Не требуется
Субтитры: Украинские

Режиссер: Олег Туранский

В ролях:

Ольга Виниченко, Александр Соколовский, Дмитрий Сова, Станислав Боклан, Юрий Горбунов, Владимир Горянский, Александр Попов, Дмитрий Суржиков, Алексей Вертинский, Александр Кобзарь, Алексей Тритенко

Описание:

«Сувенир из Одессы» — это приключенческая драма о переломные времена и несокрушимые чувства, о любви, которую герои пронесли через смену властей и правительств и напряженные криминальные перипетии Южной Пальмиры. События разворачиваются на протяжении ХХ века, мы знакомимся с Одессой 1917 г., наблюдаем становление новой власти после революции, противостояние официального правительства нескольким локальным бандитским группировкам, иногда события переносят нас и в относительно недавнее прошлое –советские 1970.

Качество: SATRip-AVC
Формат: MKV

Видео: MPEG-4 AVC, ~ 1500 Кбит/с, 720x400, 25 кадр/с
Аудио: AC3, 2 ch, 192 Кбит/с
скриншот   скриншот   скриншот   скриншот  

Общее
Уникальный идентификатор : 241354349477245557514421906983621234220 (0xB5932829B8ED7EBBA23AE18AA4E80E2C)
Полное имя : D:\Suvenir.iz.Odessy.(2018).SATRip.(AVC).Files-x\01.Suvenir.iz.Odessy.(2018).SATRip.(AVC).by.Серый1779.Files-x.mkv
Формат : Matroska
Версия формата : Version 2
Размер файла : 545 Мбайт
Продолжительность : 45 м. 0 с.
Общий поток : 1693 Кбит/сек
Дата кодирования : UTC 2018-03-19 20:55:49
Программа кодирования : mkvmerge v7.8.0 ('River Man') 32bit built on Apr 3 2015 12:11:22
Библиотека кодирования : libebml v1.3.1 + libmatroska v1.4.2

Видео
Идентификатор : 1
Формат : AVC
Формат/Информация : Advanced Video Codec
Профиль формата : High@L4.1
Параметр CABAC формата : Да
Параметр RefFrames формата : 9 кадров
Идентификатор кодека : V_MPEG4/ISO/AVC
Продолжительность : 45 м. 0 с.
Битрейт : 1500 Кбит/сек
Ширина : 720 пикселей
Высота : 400 пикселей
Соотношение сторон : 16:9
Режим частоты кадров : Постоянный
Частота кадров : 25,000 кадров/сек
Цветовое пространство : YUV
Субдискретизация насыщенности : 4:2:0
Битовая глубина : 8 бит
Тип развёртки : Прогрессивная
Бит/(Пиксели*Кадры) : 0.208
Размер потока : 472 Мбайт (87%)
Библиотека кодирования : x264 core 146 r2538 121396c
Настройки программы : cabac=1 / ref=9 / deblock=1:-3:-3 / analyse=0x3:0x133 / me=umh / subme=9 / psy=1 / psy_rd=1.00:0.15 / mixed_ref=1 / me_range=32 / chroma_me=1 / trellis=2 / 8x8dct=1 / cqm=0 / deadzone=21,11 / fast_pskip=0 / chroma_qp_offset=-3 / threads=18 / lookahead_threads=3 / sliced_threads=0 / nr=0 / decimate=1 / interlaced=0 / bluray_compat=0 / constrained_intra=0 / bframes=9 / b_pyramid=2 / b_adapt=2 / b_bias=0 / direct=1 / weightb=1 / open_gop=0 / weightp=2 / keyint=250 / keyint_min=25 / scenecut=40 / intra_refresh=0 / rc=2pass / mbtree=0 / bitrate=1500 / ratetol=1.0 / qcomp=0.60 / qpmin=0 / qpmax=69 / qpstep=4 / cplxblur=20.0 / qblur=0.5 / ip_ratio=1.40 / pb_ratio=1.30 / aq=2:1.00
Default : Да
Forced : Нет
Цветовой диапазон : Limited
Основные цвета : BT.601 PAL
Характеристики трансфера : BT.470 System B, BT.470 System G
Коэффициенты матрицы : BT.601

Аудио
Идентификатор : 2
Формат : AC-3
Формат/Информация : Audio Coding 3
Расширение режима : CM (complete main)
Параметр Endianness формата : Big
Идентификатор кодека : A_AC3
Продолжительность : 45 м. 0 с.
Вид битрейта : Постоянный
Битрейт : 192 Кбит/сек
Каналы : 2 канала
Расположение каналов : Front: L R
Частота : 48,0 КГц
Частота кадров : 31,250 кадров/сек (1536 spf)
Метод сжатия : С потерями
Размер потока : 61,8 Мбайт (11%)
Default : Да
Forced : Нет

pb.wtf



Скачать Сувенир из Одессы через торрент http://i100.fastpic.ru/big/2018/0323/98/094b91f9eef9a3a8d1f5af3941019a98.jpg Скачать фильм Сувенир из Одессы через торрент бесплантно в хорошем качестве Описание: «Сувенир из Одессы» — это приключенческая драма о переломные времена и несокрушимые чувства, о любви, которую герои пронесли ... 8.7 10 7
Info! Золотая раздача, скачанное не засчитывается.
Торрент: Зарегистрирован [2018-04-06 02:10] · скачан: 89 раз
Статус: √ проверено
Размер: 6.14 GB
Как cкачать? Как скачать Сувенир из Одессы через торрент | qTorrent

% Раздел Тема Автор DL S | L
Наши сериалы [ 7.24 GB ] Сувенир из Одессы / Сезон: 1 / Серии: 1-12 из 12 [2018 Приключенческая WEB-DL 720p] bober100 Скачать
1 | 0
Наши сериалы [ 15.22 GB ] Сувенир из Одессы / Сезон: 1 / Серии: 1-12 из 12 [2018 Приключенческая WEB-DL 1080p] bober100 Скачать
1 | 0

28-11-2019 20:33  

Отключить всю рекламу на сайте

    Дорогой пользователь! Огромная просьба, поблагодарите релизера, оцените раздачу и оставьте свои комментарий, если Вы скачали Сувенир из Одессы через торрент бесплатно! Внесите свою лепту в развитие PiratBit!
    Комментировать посты могут только пользователи прошедшие не сложную регистрацию
    Показать сообщения:    

    Сувенир из Одессы через торрент
    Скачать бесплатно Сувенир из Одессы
    Сувенир из Одессы скачать торрент
    Сувенир из Одессы смотреть онлайн
    Cкачать фильм Сувенир из Одессы бесплатно
    Сувенир из Одессы скачать торрент в хорошем качестве
    Сувенир из Одессы смотреть онлайн бесплатно в хорошем качестве


    Вы не можете начинать темы
    Вы не можете отвечать на сообщения
    Вы не можете редактировать свои сообщения
    Вы не можете удалять свои сообщения
    Вы не можете голосовать в опросах
    Вы не можете прикреплять файлы к сообщениям
    Вы можете скачивать файлы