Ссылка на приватное зеркало всего за 1$. Внимание количество ограничено!!!

iTunes

1+1

iTunes

мы

WEB-DL

1

iTunes

Чернобыль

iTunes

Ральф против интернета

Лицензия

ПШазам

Лицензия

Оно 2

Лицензия

30
pack

Вам бонус

ВАЖНО

!!Акция!!

Alien_RageХит недели

RePack

Resident Evil 21

ИГРА 18+

pack

RePack

jed

!!Акция!!

Alien_Rage

RePack

fifa19

RePack

Assassins Creed: Odyssey

RePack

NEED FOR SPEED™ PAYBACK

3 сезон

9 сезон

Бесстыжие 9 сезон

Все сериалы

все сериалы на PB.wtf

RePack

FAR CRY 5
Ребята, катастрофически не хватает 1900р. для оплаты серверов за Октябрь (всвязи с блокировками трафик упал в 3 раза), 1-2р., выручайте.
  

Аннигиляция / Annihilation (Алекс Гарленд) [2018, Фантастика, фэнтези, ужасы, триллер, драма, детектив, приключения, WEBRip] MVO [Jaskier] pb.wtf

Аннигиляция через торрент pb.wtf

Раздают: 1 [ 0 KB/s ]
Размер: 1.46 GB | Добавлен: 1 год 8 мес. назад | Торрент скачан:813 раз
Скачать  

06-04-2018 06:07 Аннигиляция Скачать торрент  

Аннигиляция / AnnihilationГод выпуска: 2018
Страна: Великобритания, США
Жанр: Фантастика, фэнтези, ужасы, триллер, драма, детектив, приключения
Продолжительность: 01:57:37
Перевод: Профессиональный (многоголосый) | Jaskier
Субтитры: Нет

Режиссер: Алекс Гарленд

rating

В ролях:

Натали Портман, Дженнифер Джейсон Ли, Оскар Айзек, Тесса Томпсон, Джина Родригез, Тува Новотны, Бенедикт Вонг, Дэвид Гяси, Соноя Мидзуно, Джон Шваб

Описание:

На Землю прилетает маленький метеорит и становится причиной больших перемен. Он врезается в одиноко стоящий маяк, что загадочным образом меняет территорию вокруг.

Профессор биологии Лина уже год страдает от потери мужа-военного. Кейн отправился на очередное секретное задание, но так и не вернулся — жив ли, погиб — женщина не знает, пока однажды дезориентированный и слегка бледный супруг внезапно не появляется на пороге их спальни. Радость длится недолго — у мужчины начинаются судороги и множественные кровотечения, а по дороге в больницу машину скорой помощи тормозят военные. Лина приходит в себя на секретной базе рядом с той самой загадочной зоной, куда уже отправлялись многочисленные экспедиции, но вернулся, оказывается, только один человек — её Кейн.

Качество: WEBRip
Формат: AVI

Видео: ~ 1416 kbps, 720x304, 23.976 fps
Аудио: Russian: AC3, 384 kb/s (6 ch)
скриншот   скриншот   скриншот  

Общее
Полное имя : D:ЯскъерAnnihilation.2018.WEBRip.Jaskier.avi
Формат : AVI
Формат/Информация : Audio Video Interleave
Размер файла : 1,46 Гбайт
Продолжительность : 1 ч. 55 м.
Общий поток : 1809 Кбит/сек
Программа кодирования : VirtualDubMod 1.5.10.3 | www.virtualdub-fr.org || (build 2550/release)
Библиотека кодирования : VirtualDubMod build 2550/release

Видео
Идентификатор : 0
Формат : MPEG-4 Visual
Профиль формата : Advanced Simple@L5
Настройки формата : BVOP1 / Custom Matrix
Параметр BVOP формата : 1
Параметр QPel формата : Нет
Параметр GMC формата : Без точки перехода
Параметр матрицы формата : Выборочная
Идентификатор кодека : XVID
Идентификатор кодека/Подсказка : XviD
Продолжительность : 1 ч. 55 м.
Битрейт : 1416 Кбит/сек
Ширина : 720 пикселей
Высота : 304 пикселя
Соотношение сторон : 2,35:1
Частота кадров : 23,976 (24000/1001) кадра/сек
Частота кадров в оригинале : 23,976 (23976/1000) кадра/сек
Цветовое пространство : YUV
Субдискретизация насыщенности : 4:2:0
Битовая глубина : 8 бит
Тип развёртки : Прогрессивная
Метод сжатия : С потерями
Бит/(Пиксели*Кадры) : 0.270
Размер потока : 1,14 Гбайт (78%)
Библиотека кодирования : XviD 65

Аудио
Идентификатор : 1
Формат : AC-3
Формат/Информация : Audio Coding 3
Идентификатор кодека : 2000
Продолжительность : 1 ч. 55 м.
Вид битрейта : Постоянный
Битрейт : 384 Кбит/сек
Каналы : 6 каналов
Расположение каналов : Front: L C R, Side: L R, LFE
Частота : 48,0 КГц
Частота кадров : 31,250 кадров/сек (1536 SPF)
Битовая глубина : 16 бит
Метод сжатия : С потерями
Размер потока : 317 Мбайт (21%)
Выравнивание : Разделение по промежуткам
Продолжительность промежутка : 42 мс. (1,00 видеокадр)
Время предзагрузки промежутка : 500 мс.

pb.wtf



Скачать Аннигиляция через торрент http://i105.fastpic.ru/big/2018/0406/88/7b17ea647ab801422ab5feb4ce153688.png Скачать фильм Аннигиляция через торрент бесплантно в хорошем качестве Описание: На Землю прилетает маленький метеорит и становится причиной больших перемен. Он врезается в одиноко стоящий маяк, что загадочным ... 9.3 10 19
Торрент: Зарегистрирован [2018-04-06 06:07] · скачан: 813 раз
Статус: √ проверено
Размер: 1.46 GB
Как cкачать? Как скачать Аннигиляция через торрент | qTorrent

% Раздел Тема Автор DL S | L
Ultra HD (UHD: 2K, 4K, 8K) — видео сверхвысокой чёткости [ 46.73 GB ] Аннигиляция / Annihilation [2018 UHD BDRemux 2160p] [Dolby Vision TV] DUB + 2xMVO + 2xAVO sheker187 Скачать
2 | 0
Ultra HD (UHD: 2K, 4K, 8K) — видео сверхвысокой чёткости [ 63.86 GB ] Аннигиляция / Annihilation [2018 UHD BDRemux 2160p] [Dolby Vision] DUB + 2xMVO + 2xAVO sheker187 Скачать
1 | 0
# Фильмы (мультфильмы) cо спонсором показа (Новинки AVI/MKV) [ 4.9 GB ] Дум: Аннигиляция / Doom: Annihilation [2019 BDRip 720p] MVO [@MUZOBOZ@] bober100 Скачать
8 | 0
T Фильмы (мультфильмы) cо спонсором показа (Новинки AVI/MKV) [ 1.37 GB ] Дум: Аннигиляция / Doom: Annihilation [2019 HDRip] MVO [@MUZOBOZ@] bober100 Скачать
5 | 0
# Фильмы (мультфильмы) cо спонсором показа (Новинки AVI/MKV) [ 9.14 GB ] Дум: Аннигиляция / Doom: Annihilation [2019 BDRip 1080p] MVO [@MUZOBOZ@] bober100 Скачать
2 | 0
Фильмы 2018 [DVDrip, WEB-DLRip, HDrip] (DUB, MVO) [ 2.13 GB ] Аннигиляция / Annihilation [2018 BDRip] - Twi7ter Скачать
9 | 0
Фильмы 2018 [DVDrip, WEB-DLRip, HDrip] (DUB, MVO) [ 1.41 GB ] Аннигиляция / Annihilation [2018 BDRip] - Twi7ter Скачать
4 | 0

28-11-2019 20:33  

Отключить всю рекламу на сайте

06-04-2018 07:21 Аннигиляция Скачать торрент  

Как фильмец?pb.wtf



13-04-2018 16:10 Аннигиляция Скачать торрент  

Это не ВАУ и даже не НОРМ-кинчик! Это просто фигня какая-то! Мало того, что сборы в кинотеатрах не окупили кино, так и во всех истетических-киноманских смыслах -это шняга.
Мне реально жаль потраченного времени, поэтому пишу и вам смотреть не советую.
Ну и самое последнее, что уже не улучшит мнение о фильме - там Наташка Портмонэ изменила мужу Армэну с Негром - фу-фу-фу!pb.wtf



22-04-2018 19:37 Аннигиляция Скачать торрент  

Я бы сказал, закос под Тармашева или Стругацких. При чем настолько бредовый, смотрел только из-за актрисы, что в главной роли. Сюжет в двух словах - зайти в аномальную зону, а потом попробывать вернуться!pb.wtf



26-04-2018 17:00 Аннигиляция Скачать торрент  

такая лажа, просто слов нет!!! Откуда такой рейтинг высокий??? Нарики ставят? pb.wtf



    Дорогой пользователь! Огромная просьба, поблагодарите релизера, оцените раздачу и оставьте свои комментарий, если Вы скачали Аннигиляция через торрент бесплатно! Внесите свою лепту в развитие PiratBit!
    Комментировать посты могут только пользователи прошедшие не сложную регистрацию
    Показать сообщения:    

    Аннигиляция через торрент
    Скачать бесплатно Аннигиляция
    Аннигиляция скачать торрент
    Аннигиляция смотреть онлайн
    Cкачать фильм Аннигиляция бесплатно
    Аннигиляция скачать торрент в хорошем качестве
    Аннигиляция смотреть онлайн бесплатно в хорошем качестве


    Вы не можете начинать темы
    Вы не можете отвечать на сообщения
    Вы не можете редактировать свои сообщения
    Вы не можете удалять свои сообщения
    Вы не можете голосовать в опросах
    Вы не можете прикреплять файлы к сообщениям
    Вы можете скачивать файлы