Ссылка на приватное зеркало нашего сайта всего за 1$. Внимание количество ограничено!!!

2 сезон

iTunes

1 сезон

1

iTunes

iTunes

iTunes

1 сезон

RePack

30

ИГРА 18+

pack

ВАЖНО

!!Акция!!

Alien_RageХит недели

RePack

MK11
pack

Забери бонус

RePack

jed

!!Акция!!

Alien_Rage

RePack

fifa19

RePack

Assassins Creed: Odyssey

RePack

NEED FOR SPEED™ PAYBACK

4 сезон

9 сезон

Бесстыжие 9 сезон

Все сериалы

все сериалы на PB.wtf

RePack

FAR CRY 5
  

Сувенир из Одессы / Сезон: 1 / Серии: 1-12 из 12 (Олег Туранский) [2018, Приключенческая драма, криминал, WEB-DL 1080p] pb.wtf

Сувенир из Одессы через торрент pb.wtf

Размер: 15.22 GB | Добавлен: 2 года 6 мес. назад | Торрент скачан:93 раза
Скачать  

06-04-2018 07:46 Сувенир из Одессы Скачать торрент  

Сувенир из Одессы
Год выпуска: 2018
Страна: Украина, Россия
Жанр: Приключенческая драма, криминал
Продолжительность: ~ 00:45:00
Перевод: Не требуется
Субтитры: Украинские

Режиссер: Олег Туранский

В ролях:

Ольга Виниченко, Александр Соколовский, Дмитрий Сова, Станислав Боклан, Юрий Горбунов, Владимир Горянский, Александр Попов, Дмитрий Суржиков, Алексей Вертинский, Александр Кобзарь, Алексей Тритенко

Описание:

«Сувенир из Одессы» — это приключенческая драма о переломные времена и несокрушимые чувства, о любви, которую герои пронесли через смену властей и правительств и напряженные криминальные перипетии Южной Пальмиры. События разворачиваются на протяжении ХХ века, мы знакомимся с Одессой 1917 г., наблюдаем становление новой власти после революции, противостояние официального правительства нескольким локальным бандитским группировкам, иногда события переносят нас и в относительно недавнее прошлое –советские 1970.

Качество: WEB-DL 1080p
Формат: MKV

Видео: MPEG-4 AVC, ~ 4000 Кбит/с, 1920x1080
Аудио: AC3, 2 ch, 192 Кбит/с
скриншот   скриншот   скриншот   скриншот  

Общее
Уникальный идентификатор : 239262875620427595293521471499494343979 (0xB4005A8A5D082B75A738E1C60E2DC52B)
Полное имя : D:\Suvenir.iz.Odessy.2018.WEB-DL.(1080p).Getty\Suvenir.iz.Odessy.e01.2018.WEB-DL.(1080p).Getty.mkv
Формат : Matroska
Версия формата : Version 4 / Version 2
Размер файла : 1,32 Гбайт
Продолжительность : 45 м. 11 с.
Общий поток : 4188 Кбит/сек
Название фильма : Suvenir.iz.Odessy.e01.2018.WEB-DL.(1080p).Getty
Дата кодирования : UTC 2018-03-19 20:49:00
Программа кодирования : mkvmerge v7.8.0 ('River Man') 32bit built on Mar 27 2015 16:18:02
Библиотека кодирования : libebml v1.3.1 + libmatroska v1.4.2

Видео
Идентификатор : 1
Формат : AVC
Формат/Информация : Advanced Video Codec
Профиль формата : High@L4
Параметр CABAC формата : Да
Параметр RefFrames формата : 3 кадра
Идентификатор кодека : V_MPEG4/ISO/AVC
Продолжительность : 45 м. 11 с.
Битрейт : 3994 Кбит/сек
Ширина : 1920 пикселей
Высота : 1080 пикселей
Соотношение сторон : 16:9
Режим частоты кадров : Постоянный
Частота кадров : 25,000 кадров/сек
Цветовое пространство : YUV
Субдискретизация насыщенности : 4:2:0
Битовая глубина : 8 бит
Тип развёртки : Прогрессивная
Бит/(Пиксели*Кадры) : 0.077
Размер потока : 1,26 Гбайт (95%)
Default : Да
Forced : Нет

Аудио
Идентификатор : 2
Формат : AC-3
Формат/Информация : Audio Coding 3
Расширение режима : CM (complete main)
Параметр Endianness формата : Big
Идентификатор кодека : A_AC3
Продолжительность : 45 м. 11 с.
Вид битрейта : Постоянный
Битрейт : 192 Кбит/сек
Каналы : 2 канала
Расположение каналов : Front: L R
Частота : 48,0 КГц
Частота кадров : 31,250 кадров/сек (1536 spf)
Метод сжатия : С потерями
Размер потока : 62,1 Мбайт (5%)
Default : Да
Forced : Нет

pb.wtf



Скачать Сувенир из Одессы через торрент http://pic1.kartinco.top/images/11/xcaru.jpg Скачать фильм Сувенир из Одессы через торрент бесплантно в хорошем качестве Описание: «Сувенир из Одессы» — это приключенческая драма о переломные времена и несокрушимые чувства, о любви, которую герои пронесли ... 8.3 10 6
Торрент: Зарегистрирован [2018-04-06 07:46] · скачан: 93 раз
Статус: √ проверено
Размер: 15.22 GB
Как cкачать? Как скачать Сувенир из Одессы через торрент | qTorrent

% Раздел Тема Автор DL S | L
Наши сериалы [ 7.24 GB ] Сувенир из Одессы / Сезон: 1 / Серии: 1-12 из 12 [2018 Приключенческая WEB-DL 720p] bober100 Скачать
1 | 0
Наши сериалы [ 6.14 GB ] Сувенир из Одессы / Сезон: 1 / Серии: 1-12 из 12 [2018 Приключенческая SATRip-AVC] bober100 Скачать
1 | 0

28-11-2019 20:33  

Отключить всю рекламу на сайте

    Дорогой пользователь! Огромная просьба, поблагодарите релизера, оцените раздачу и оставьте свои комментарий, если Вы скачали Сувенир из Одессы через торрент бесплатно! Внесите свою лепту в развитие PiratBit!
    Комментировать посты могут только пользователи прошедшие не сложную регистрацию
    Показать сообщения:    

    Сувенир из Одессы через торрент
    Скачать бесплатно Сувенир из Одессы
    Сувенир из Одессы скачать торрент
    Сувенир из Одессы смотреть онлайн
    Cкачать фильм Сувенир из Одессы бесплатно
    Сувенир из Одессы скачать торрент в хорошем качестве
    Сувенир из Одессы смотреть онлайн бесплатно в хорошем качестве


    Вы не можете начинать темы
    Вы не можете отвечать на сообщения
    Вы не можете редактировать свои сообщения
    Вы не можете удалять свои сообщения
    Вы не можете голосовать в опросах
    Вы не можете прикреплять файлы к сообщениям
    Вы можете скачивать файлы