Ссылка на приватное зеркало нашего сайта всего за 1$. Внимание количество ограничено!!!

2 сезон

iTunes

1 сезон

1

2 сезон

2 сезон

iTunes

1 сезон

RePack

30

Новинка

ВАЖНО

ИГРА 18+

pack

RePack

MK11
pack

Забери бонус

RePack

jed

!!Акция!!

Alien_Rage

RePack

fifa19

RePack

Assassins Creed: Odyssey

RePack

NEED FOR SPEED™ PAYBACK

4 сезон

9 сезон

Бесстыжие 9 сезон

Все сериалы

все сериалы на PB.wtf

RePack

FAR CRY 5
  

Реальный Рокки / The Bleeder (Филипп Фалардо) [2016, Драма, биография, спорт, BD Remux 1080p] AVO [Карповский] +MVO [Лицензия / iTunes] pb.wtf

Реальный Рокки через торрент pb.wtf

Размер: 27.03 GB | Добавлен: 2 года 7 мес. назад | Торрент скачан:8 раз
Скачать  

06-04-2018 09:34 Реальный Рокки Скачать торрент  

Реальный Рокки / The BleederГод выпуска: 2016
Страна: США
Жанр: Драма, биография, спорт
Продолжительность: 01:38:24
Перевод:

#1. Профессиональный многоголосый | Лицензия / iTunes
#2. Авторский | Карповский

Субтитры: отсутствуют

Режиссер: Филипп Фалардо

rating

В ролях:

Элизабет Мосс, Наоми Уоттс, Лив Шрайбер, Рон Перлман, Майкл Рапапорт, Сэди Синк, Морган Спектор, Пуч Холл, Джим Гэффиган, Джейсон Джонс

Описание:

История о боксере-тяжеловесе Чаке Уэпнере, жизнь которого резко изменилась после победы над легендарным Мохаммедом Али. Какой-то Сталлоне написал сценарий на основе его жизни, и Чак вошел в историю как прототип Рокки Бальбоа. Он любил жизнь, азартные игры и женщин, и ни за что не хотел отказываться от славы.

Качество: BD Remux 1080p
Формат: MKV

Видео: 31687 Кбит/с, 1920x1080, 23.976 Кадр/с
Аудио#1: Русский AC3 5.1 384 kbps - Профессиональный многоголосый (iTunes)
Аудио#2: Русский DTS-HD MA 5.1 3643 kbps - Авторский (Карповский)
Аудио#3: Английский DTS-HD MA 5.1 3603 kbps - Оригинал
скриншот   скриншот   скриншот   скриншот   скриншот   скриншот  

Общее
Уникальный идентификатор : 206441301923028512846033614141816075120 (0x9B4F2604F5C7415E9337127006D87370)
Полное имя : D:\РЕМУКС!!!!!\Реальный Рокки.BDRemux..mkv
Формат : Matroska
Версия формата : Version 4 / Version 2
Размер файла : 27,0 Гбайт
Продолжительность : 1 ч. 38 м.
Режим общего битрейта : Переменный
Общий поток : 39,3 Мбит/сек
Дата кодирования : UTC 2018-04-06 05:34:03
Программа кодирования : mkvmerge v8.3.0 ('Over the Horizon') 64bit
Библиотека кодирования : libebml v1.3.1 + libmatroska v1.4.2

Видео
Идентификатор : 1
Формат : AVC
Формат/Информация : Advanced Video Codec
Профиль формата : High@L4.1
Настройки формата : CABAC / 4 Ref Frames
Параметр CABAC формата : Да
Параметр RefFrames формата : 4 кадра
Идентификатор кодека : V_MPEG4/ISO/AVC
Продолжительность : 1 ч. 38 м.
Вид битрейта : Переменный
Битрейт : 31,7 Мбит/сек
Максимальный битрейт : 35,0 Мбит/сек
Ширина : 1920 пикселей
Высота : 1080 пикселей
Соотношение сторон : 16:9
Режим частоты кадров : Постоянный
Частота кадров : 23,976 (24000/1001) кадра/сек
Цветовое пространство : YUV
Субдискретизация насыщенности : 4:2:0
Битовая глубина : 8 бит
Тип развёртки : Прогрессивная
Бит/(Пиксели*Кадры) : 0.637
Размер потока : 21,8 Гбайт (81%)
Язык : English
Default : Да
Forced : Нет

Аудио #1
Идентификатор : 2
Формат : AC-3
Формат/Информация : Audio Coding 3
Идентификатор кодека : A_AC3
Продолжительность : 1 ч. 38 м.
Вид битрейта : Постоянный
Битрейт : 384 Кбит/сек
Каналы : 6 каналов
Расположение каналов : Front: L C R, Side: L R, LFE
Частота : 48,0 КГц
Частота кадров : 31,250 кадров/сек (1536 SPF)
Битовая глубина : 16 бит
Метод сжатия : С потерями
Размер потока : 270 Мбайт (1%)
Заголовок : Русский ас3 - ПМ
Язык : Russian
ServiceKind/String : Complete Main
Default : Да
Forced : Нет

Аудио #2
Идентификатор : 3
Формат : DTS
Формат/Информация : Digital Theater Systems
Профиль формата : MA / Core
Идентификатор кодека : A_DTS
Продолжительность : 1 ч. 38 м.
Вид битрейта : Переменный / Постоянный
Битрейт : 3643 Кбит/сек / 1509 Кбит/сек
Каналы : 6 каналов
Расположение каналов : Front: L C R, Side: L R, LFE
Частота : 48,0 КГц
Частота кадров : 93,750 кадра/сек (512 SPF)
Битовая глубина : 24 бит
Метод сжатия : Без потерь / Lossy
Размер потока : 2,50 Гбайт (9%)
Заголовок : Русский DTS-HD MA - АП (Карповский)
Язык : Russian
Default : Нет
Forced : Нет

Аудио #3
Идентификатор : 4
Формат : DTS
Формат/Информация : Digital Theater Systems
Профиль формата : MA / Core
Идентификатор кодека : A_DTS
Продолжительность : 1 ч. 38 м.
Вид битрейта : Переменный / Постоянный
Битрейт : 3603 Кбит/сек / 1509 Кбит/сек
Каналы : 6 каналов
Расположение каналов : Front: L C R, Side: L R, LFE
Частота : 48,0 КГц
Частота кадров : 93,750 кадра/сек (512 SPF)
Битовая глубина : 24 бит
Метод сжатия : Без потерь / Lossy
Размер потока : 2,48 Гбайт (9%)
Заголовок : Английский DTS-HD MA - Оригинал
Язык : English
Default : Нет
Forced : Нет

Меню
00:00:00.000 : :Chapter 01
00:10:57.990 : :Chapter 02
00:17:11.989 : :Chapter 03
00:21:05.637 : :Chapter 04
00:25:40.121 : :Chapter 05
00:30:59.272 : :Chapter 06
00:38:24.050 : :Chapter 07
00:43:50.376 : :Chapter 08
00:52:06.873 : :Chapter 09
00:58:39.389 : :Chapter 10
01:04:37.164 : :Chapter 11
01:10:21.884 : :Chapter 12
01:21:22.752 : :Chapter 13
01:27:29.077 : :Chapter 14
01:32:28.832 : :Chapter 15

pb.wtf



Скачать Реальный Рокки через торрент http://pic1.kartinco.top/images/11/6kzz9.jpg Скачать фильм Реальный Рокки через торрент бесплантно в хорошем качестве Описание: История о боксере-тяжеловесе Чаке Уэпнере, жизнь которого резко изменилась после победы над легендарным Мохаммедом Али. Какой-то ... 8.2 10 5
Торрент: Зарегистрирован [2018-04-06 09:34] · скачан: 8 раз
Статус: √ проверено
Размер: 27.03 GB
Как cкачать? Как скачать Реальный Рокки через торрент | qTorrent

% Раздел Тема Автор DL S | L
Фильмы 2016 [DVDrip, WEB-DLRip, HDrip] (DUB, MVO) [ 1.42 GB ] Реальный Рокки / The Bleeder [2016 биография BDRip] MVO Twi7ter Скачать
1 | 0
Видео для КПК и Смартфонов [ 377 MB ] Реальный Рокки / The Bleeder [2016 биография HDRip КПК] MVO bober100 Скачать
1 | 0
Фильмы 2016 [DVDrip, WEB-DLRip, HDrip] (DUB, MVO) [ 1.42 GB ] Реальный Рокки / The Bleeder [2016 биография BDRip] MVO bober100 Скачать
1 | 0

28-11-2019 20:33  

Отключить всю рекламу на сайте

    Дорогой пользователь! Огромная просьба, поблагодарите релизера, оцените раздачу и оставьте свои комментарий, если Вы скачали Реальный Рокки через торрент бесплатно! Внесите свою лепту в развитие PiratBit!
    Комментировать посты могут только пользователи прошедшие не сложную регистрацию
    Показать сообщения:    

    Реальный Рокки через торрент
    Скачать бесплатно Реальный Рокки
    Реальный Рокки скачать торрент
    Реальный Рокки смотреть онлайн
    Cкачать фильм Реальный Рокки бесплатно
    Реальный Рокки скачать торрент в хорошем качестве
    Реальный Рокки смотреть онлайн бесплатно в хорошем качестве


    Вы не можете начинать темы
    Вы не можете отвечать на сообщения
    Вы не можете редактировать свои сообщения
    Вы не можете удалять свои сообщения
    Вы не можете голосовать в опросах
    Вы не можете прикреплять файлы к сообщениям
    Вы можете скачивать файлы