Ребята, если до конца года каждый наш пользователь пожертвует хотя бы 10 рублей, нам хватит денег оплатить все наши расходы.

iTunes

Хэллоуин

iTunes

venom

iTunes

Вы умрете, или мы вернем вам деньги

iTunes

iTunes

Тайна дома с часами

iTunes

Ничего хорошего в отеле «Эль рояль»

1080p

Хит недели

Лицензия

Агент Джонни Инглиш 3.0

ИГРА 18+

pack

RePack

Battlefield V

RePack

Assassins Creed: Odyssey
pack

Проголосуй

Лучший релизер 2018

RePack

Darksiders 3

iTunes 4K

venom Хит недели

RePack

fifa19

!!Акция!!

Alien_RageХит недели

RePack

NEED FOR SPEED™ PAYBACK

SATRip

9 сезон

Бесстыжие 9 сезон

Все сериалы

все сериалы на PB.wtf

iTunes

Мэнди

RePack

FAR CRY 5
  

Сверхъестественное / Supernatural / Сезон: 7 / Серии 1-8 из 23 (Роберт Сингер, Филип Сгриккиа, Джон Шоуолтер) [2011 г., ужасы, фэнтези, триллер, драма, детектив, BDRip-AVC, DUB (ТК Пятница)]

Сверхъестественное через торрент

Раздают: 2 [ 0 KB/s ]
Размер: 6.33 GB | Добавлен: 2 д. 11 ч. назад | Торрент скачан:1 раз
Скачать  

06-04-2018 12:43 Сверхъестественное Скачать торрент  

Сверхъестественное / Supernatural /
Сезон: 7 / Серии 1-8 из 23
Год выпуска: 2010
Страна: США
Жанр: ужасы, фэнтези, триллер, драма, детектив
Продолжительность: 00:42:00 серия
Перевод: Дубляж (ТК Пятница)
Субтитры: отсутствуют

Режиссер: Роберт Сингер, Филип Сгриккиа, Джон Шоуолтер

Премьера в мире: Премьера в мире: 13 сентября 2005

rating

В ролях: Джаред Падалеки, Дженсен Эклс, Джеффри Дин Морган, Джим Бивер, Миша Коллинз, Марк Шеппард, Марк Пеллегрино, Женевьев Падалеки, Кэти Кэссиди, Джеймс Патрик Стюарт, Саманта Феррис и др.

Описание: Сериал рассказывает о приключениях братьев Сэма и Дина Винчестеров, которые путешествуют по Соединённым Штатам на чёрном автомобиле Chevrolet Impala 1967 года, расследуют паранормальные явления, многие из которых основаны на американских городских легендах и фольклоре, и сражаются с порождениями зла, такими как демоны и призраки.

Качество: BDRip-AVC
Формат: MKV
Видео кодек: H.264
Аудио кодек: AC3
Видео: AVC/H.264, 1024х576 (16:9), ~2500 kbps, 0.177 bit/pixel
Аудио#1: Русский: AC3, 2 ch, 192 kbps - Дубляж (ТК Пятница)
Релиз от: winchester00100010
Эпизод 1. Встречайте нового босса / Meet the New Boss
Эпизод 2. Привет, жестокий мир! / Hello Cruel World
Эпизод 3. Простая девчонка / The Girl Next Door
Эпизод 4. Защищая свою жизнь / Defending Your Life
Эпизод 5. Милые бранятся - только тешатся / Shut Up, Dr. Phil
Эпизод 6. Убойное чтиво / Slash Fiction
Эпизод 7. Менталисты / The Mentalists
Эпизод 8. Седьмой сезон - пора жениться! / Season Seven, Time for a Wedding!


x264 [info]: profile High, level 4.1
x264 [info]: frame I:836 Avg QP:14.71 size: 85146 PSNR Mean Y:48.65 U:51.12 V:51.42 Avg:49.26 Global:48.73
x264 [info]: frame P:13305 Avg QP:17.23 size: 29463 PSNR Mean Y:46.20 U:49.05 V:49.49 Avg:46.89 Global:46.23
x264 [info]: frame B:46748 Avg QP:18.89 size: 7067 PSNR Mean Y:45.50 U:48.20 V:48.78 Avg:46.19 Global:45.54
Общее
Уникальный идентификатор : 204046175512065409918900262557717106566 (0x9981DD2B8A94DC75ACF66B3554880F86)
Полное имя : D:\МОИ РАЗДАЧИ ФИЛЬМЫ И СЕРИАЛЫ\Supernatural.S07.2011-2012.BDRip-AVC\Supernatural.S07E01.BDRip-AVC.mkv
Формат : Matroska
Версия формата : Version 2
Размер файла : 815 Мбайт
Продолжительность : 42 м. 20 с.
Общий поток : 2693 Кбит/сек
Дата кодирования : UTC 2019-01-11 12:02:01
Программа кодирования : mkvmerge v7.8.0 ('River Man') 32bit built on Apr 3 2015 12:11:22
Библиотека кодирования : libebml v1.3.1 + libmatroska v1.4.2

Видео
Идентификатор : 1
Формат : AVC
Формат/Информация : Advanced Video Codec
Профиль формата : High@L4.1
Настройки формата : CABAC / 12 Ref Frames
Параметр CABAC формата : Да
Параметр RefFrames формата : 12 кадров
Идентификатор кодека : V_MPEG4/ISO/AVC
Продолжительность : 42 м. 20 с.
Битрейт : 2500 Кбит/сек
Ширина : 1024 пикселя
Высота : 576 пикселей
Соотношение сторон : 16:9
Режим частоты кадров : Постоянный
Частота кадров : 23,976 (24000/1001) кадра/сек
Цветовое пространство : YUV
Субдискретизация насыщенности : 4:2:0
Битовая глубина : 8 бит
Тип развёртки : Прогрессивная
Бит/(Пиксели*Кадры) : 0.177
Размер потока : 741 Мбайт (91%)
Библиотека кодирования : x264 core 146 r2538 121396c
Настройки программы : cabac=1 / ref=12 / deblock=1:-3:-3 / analyse=0x3:0x113 / me=umh / subme=9 / psy=1 / psy_rd=1.00:0.15 / mixed_ref=1 / me_range=24 / chroma_me=1 / trellis=2 / 8x8dct=1 / cqm=0 / deadzone=21,11 / fast_pskip=0 / chroma_qp_offset=-3 / threads=12 / lookahead_threads=2 / sliced_threads=0 / nr=0 / decimate=0 / interlaced=0 / bluray_compat=0 / constrained_intra=0 / bframes=6 / b_pyramid=2 / b_adapt=2 / b_bias=0 / direct=3 / weightb=1 / open_gop=0 / weightp=2 / keyint=240 / keyint_min=23 / scenecut=40 / intra_refresh=0 / rc_lookahead=40 / rc=2pass / mbtree=0 / bitrate=2500 / ratetol=1.0 / qcomp=0.60 / qpmin=0 / qpmax=69 / qpstep=4 / cplxblur=20.0 / qblur=0.5 / vbv_maxrate=50000 / vbv_bufsize=62500 / nal_hrd=none / filler=0 / ip_ratio=1.40 / pb_ratio=1.30 / aq=1:0.80
Default : Да
Forced : Нет

Аудио
Идентификатор : 2
Формат : AC-3
Формат/Информация : Audio Coding 3
Коммерческое название : Dolby Digital
Идентификатор кодека : A_AC3
Продолжительность : 42 м. 20 с.
Вид битрейта : Постоянный
Битрейт : 192 Кбит/сек
Каналы : 2 канала
Channel layout : L R
Частота : 48,0 КГц
Частота кадров : 31,250 кадров/сек (1536 SPF)
Битовая глубина : 16 бит
Метод сжатия : С потерями
Размер потока : 58,1 Мбайт (7%)
ServiceKind/String : Complete Main
Default : Да
Forced : Нет

Внимание! Раздача ведётся путём добавления новых серий; при каждом добавлении создаётся новый торрент. Чтобы начать докачку новой серии, пользователям необходимо сделать следующее:
(1) остановить скачивание,
(2) удалить старый торрент у себя из клиента (старые серии удалять не надо),
(3) скачать новый торрент и запустить его у себя в клиенте вместо старого, при этом указать клиенту путь в старую папку куда и должно происходить скачивание новых серий.
Ваш клиент при этом должен произвести хеширование (проверку) старой папки (если не производит сам - помогите ему сделать это), и будет докачивать только те серии которых у вас ещё нет. Старые серии при этом не удаляются, а продолжают раздаваться!
Eсли вы уже удалили старые серии, то предотвратить повторную закачку старых серий можно, отжав галочку в соответсвующих местах при запуске нового торрента. По возможности, желательно не удалять старые серии как можно дольше чтобы релизёр не столько продолжал раздавать старые серии, а смог сконцентрироваться на новых.




Скачать Сверхъестественное через торрент https://c.radikal.ru/c14/1804/ba/fb3247d58ffa.jpg Скачать фильм Сверхъестественное через торрент бесплантно в хорошем качестве Описание: Сериал рассказывает о приключениях братьев Сэма и Дина Винчестеров, которые путешествуют по Соединённым Штатам на чёрном ... 8.2 10 5
Info! Золотая раздача, скачанное не засчитывается.
Торрент: Зарегистрирован [2019-01-15 13:06] · скачан: 1 раз
Статус: √ проверено
Размер: 6.33 GB
Как cкачать? Как скачать Сверхъестественное через торрент | qTorrent



Последний раз редактировалось: winchester00100010 (2019-01-15 13:05), всего редактировалось 15 раз(а)


>> Регистрируемся здесь <<






Отзывы и комментарии о схеме читаем и пишем здесь: ---> Отзывы и комментарии о схеме

Новые благодарочки в телеграм довольных пользователей:
скриншот   скриншот   скриншот   скриншот   скриншот

15-01-2019 13:06 Сверхъестественное Скачать торрент  

Торрент файл обновлен, добавлены 7 и 8 серии, перекачайте торрент)



15-01-2019 19:42 Сверхъестественное Скачать торрент  

ни че что сейчас 11 сезон а не 7?



16-01-2019 18:15 Сверхъестественное Скачать торрент  

ни че что сейчас 13 сезон а не 7?



    Дорогой пользователь! Огромная просьба, поблагодарите релизера, оцените раздачу и оставьте свои комментарий, если Вы скачали Сверхъестественное через торрент бесплатно! Внесите свою лепту в развитие PiratBit!
    Комментировать посты могут только пользователи прошедшие не сложную регистрацию
    Показать сообщения:    

    Сверхъестественное через торрент
    Скачать бесплатно Сверхъестественное
    Сверхъестественное скачать торрент
    Сверхъестественное смотреть онлайн
    Cкачать фильм Сверхъестественное бесплатно
    Сверхъестественное скачать торрент в хорошем качестве
    Сверхъестественное смотреть онлайн бесплатно в хорошем качестве


    Вы не можете начинать темы
    Вы можете отвечать на сообщения
    Вы не можете редактировать свои сообщения
    Вы не можете удалять свои сообщения
    Вы не можете голосовать в опросах
    Вы не можете прикреплять файлы к сообщениям
    Вы можете скачивать файлы