Ссылка на приватное зеркало нашего сайта всего за 1$. Внимание количество ограничено!!!

2 сезон

iTunes

iTunes

1

iTunes

iTunes

iTunes

WEBRip

iTunes

30
pack

Новость дня

ВАЖНО

!!Акция!!

Alien_RageХит недели

RePack

Horizon Zero Dawn

ИГРА 18+

pack

RePack

jed

!!Акция!!

Alien_Rage

RePack

fifa19

RePack

Assassins Creed: Odyssey

RePack

NEED FOR SPEED™ PAYBACK

4 сезон

9 сезон

Бесстыжие 9 сезон

Все сериалы

все сериалы на PB.wtf

RePack

FAR CRY 5
  

После Луи / After Louie (Винсент Гаглиостро) [2017, драма, мелодрама, WEB-DL 720p] MVO ["Синема УС"] pb.wtf

После Луи через торрент pb.wtf

Размер: 3.48 GB | Добавлен: 2 года 5 мес. назад | Торрент скачан:12 раз
Скачать  

06-04-2018 13:48 После Луи Скачать торрент  

После Луи / After LouieГод выпуска: 2017
Страна: США
Жанр: драма, мелодрама
Продолжительность: 01:42:56
Перевод: Любительский (многоголосый) | "Синема УС"
Субтитры: отсутствуют

Режиссер: Винсент Гаглиостро

rating

В ролях:

Алан Камминг, Закари Бут, Сарита Чоудри, Патрик Брин, Уилсон Крус, Эверетт Куинтон, Энтони Джонстон, Дэвид Дрэйк, Джастин Бонд, Джозеф Ариас

Описание:

Добрая половина приятелей Сэма умерла от СПИДа в девяностые, в том числе и его друг Уильям. Времена изменились, однако проблема все так же актуальна. Сэм пытается понять, как живет, чем дышит и чего боится современное гей-сообщество, сравнивая жизнь своих погибших друзей с жизнью своих молодых партнеров.

Качество: WEB-DL 720p
Формат: MKV

Видео: 4450 Кбит/с, 1280x532
Аудио#1: AC3, 2 ch, 384 Кбит/с
скриншот  скриншот  скриншот  

Общее
Уникальный идентификатор : 227820318415584474466127298284106020680 (0xAB6498E9CF14FA16ABA5258934EFF748)
Полное имя : D:\After.Louie.2017.P.WEB-DL.72Op_KOSHARA.mkv
Формат : Matroska
Версия формата : Version 2
Размер файла : 3,48 Гбайт
Продолжительность : 1 ч. 42 м.
Режим общего битрейта : Переменный
Общий поток : 4836 Кбит/сек
Дата кодирования : UTC 2018-04-04 09:14:03
Программа кодирования : mkvmerge v8.3.0 ('Over the Horizon') 64bit
Библиотека кодирования : libebml v1.3.1 + libmatroska v1.4.2

Видео
Идентификатор : 1
Формат : AVC
Формат/Информация : Advanced Video Codec
Профиль формата : High@L4.1
Параметр CABAC формата : Да
Параметр RefFrames формата : 4 кадра
Идентификатор кодека : V_MPEG4/ISO/AVC
Продолжительность : 1 ч. 42 м.
Вид битрейта : Переменный
Битрейт : 4450 Кбит/сек
Максимальный битрейт : 5000 Кбит/сек
Ширина : 1280 пикселей
Высота : 532 пикселя
Соотношение сторон : 2,40:1
Режим частоты кадров : Постоянный
Частота кадров : 23,976 (24000/1001) кадра/сек
Стандарт вещания : Component
Цветовое пространство : YUV
Субдискретизация насыщенности : 4:2:0
Битовая глубина : 8 бит
Тип развёртки : Прогрессивная
Бит/(Пиксели*Кадры) : 0.267
Размер потока : 3,13 Гбайт (90%)
Default : Да
Forced : Нет
Цветовой диапазон : Limited
Основные цвета : BT.709
Характеристики трансфера : BT.709
Коэффициенты матрицы : BT.709

Аудио
Идентификатор : 2
Формат : AC-3
Формат/Информация : Audio Coding 3
Расширение режима : CM (complete main)
Параметр Endianness формата : Big
Идентификатор кодека : A_AC3
Продолжительность : 1 ч. 42 м.
Вид битрейта : Постоянный
Битрейт : 384 Кбит/сек
Каналы : 2 канала
Расположение каналов : Front: L R
Частота : 48,0 КГц
Частота кадров : 31,250 кадров/сек (1536 spf)
Метод сжатия : С потерями
Размер потока : 283 Мбайт (8%)
Default : Да
Forced : Нет

pb.wtf



Скачать После Луи через торрент http://img12.lostpic.net/2018/04/06/11b7a8f65a8135dd969179e8edc1ec90.jpg Скачать фильм После Луи через торрент бесплантно в хорошем качестве Описание: Добрая половина приятелей Сэма умерла от СПИДа в девяностые, в том числе и его друг Уильям. Времена изменились, однако проблема ... 7 10 3
Торрент: Зарегистрирован [2018-04-06 13:48] · скачан: 12 раз
Статус: T временная
Размер: 3.48 GB
Как cкачать? Как скачать После Луи через торрент | qTorrent

% Раздел Тема Автор DL S | L
T Фильмы (мультфильмы) cо спонсором показа (Новинки AVI/MKV) [ 1.37 GB ] После Луи / After Louie [2017 WEB-DLRip] MVO ["Синема УС"] bober100 Скачать
1 | 0

28-11-2019 20:33  

Отключить всю рекламу на сайте

    Дорогой пользователь! Огромная просьба, поблагодарите релизера, оцените раздачу и оставьте свои комментарий, если Вы скачали После Луи через торрент бесплатно! Внесите свою лепту в развитие PiratBit!
    Комментировать посты могут только пользователи прошедшие не сложную регистрацию
    Показать сообщения:    

    После Луи через торрент
    Скачать бесплатно После Луи
    После Луи скачать торрент
    После Луи смотреть онлайн
    Cкачать фильм После Луи бесплатно
    После Луи скачать торрент в хорошем качестве
    После Луи смотреть онлайн бесплатно в хорошем качестве


    Вы не можете начинать темы
    Вы не можете отвечать на сообщения
    Вы не можете редактировать свои сообщения
    Вы не можете удалять свои сообщения
    Вы не можете голосовать в опросах
    Вы не можете прикреплять файлы к сообщениям
    Вы можете скачивать файлы