Ссылка на приватное зеркало нашего сайта всего за 1$. Внимание количество ограничено!!!

2 сезон

iTunes

1 сезон

1

2 сезон

2 сезон

iTunes

1 сезон

RePack

30

Новинка

ВАЖНО

ИГРА 18+

pack

RePack

MK11
pack

Забери бонус

RePack

jed

!!Акция!!

Alien_Rage

RePack

fifa19

RePack

Assassins Creed: Odyssey

RePack

NEED FOR SPEED™ PAYBACK

4 сезон

9 сезон

Бесстыжие 9 сезон

Все сериалы

все сериалы на PB.wtf

RePack

FAR CRY 5
  

Чужой: Завет / Alien: Covenant (Ридли Скотт) [2017, ужасы, фантастика, триллер, UHD BDRip 2160p] DUB (rus, ukr) pb.wtf

Чужой: Завет через торрент pb.wtf

Размер: 20.22 GB | Добавлен: 2 года 7 мес. назад | Торрент скачан:94 раза
Скачать  

06-04-2018 14:20 Чужой: Завет Скачать торрент  

Чужой: Завет / Alien: Covenant
Год выпуска: 2017
Страна: США, Великобритания
Жанр: ужасы, фантастика, триллер
Продолжительность: 02:02:03
Перевод: Дублированный
Субтитры: Русские, английские, украинские
Режиссер: Ридли Скотт
В ролях:


Майкл Фассбендер, Кэтрин Уотерстон, Билли Крудап, Дэнни МакБрайд, Демиан Бишир, Кармен Эджого, Джусси Смоллетт, Калли Эрнандес, Эми Саймец, Натаниель Дин, Александр Инглэнд, Бенжамин Ригби
Описание:
Во время обследования удаленной планеты, расположенной на другой стороне галактики, экипаж колониального корабля «Завет» обнаруживает, что то, что они изначально приняли за неизведанный рай, на самом деле - тёмный и опасный мир. Его единственный житель - синтетический андроид Дэвид, оставшийся в живых после обреченной экспедиционной миссии «Прометей».

Рейтинг:

MPAA: R - Лицам до 17 лет обязательно присутствие взрослого
Качество: UHD BDRip 2160p
Формат: MKV
Видео: HEVC, 21.8 Мбит/с, 3840x1600, 23.976 Кадр/с
Аудио 1: Русский DTS Audio 768 kbps 5.1 / 48 kHz / 768 kbps (дубляж)
Аудио 2: Украинский Dolby Digital Audio 448 kbps 5.1 / 48 kHz / 448 kbps (дубляж)
Аудио 3: Английский Dolby Digital 640 kbps 5.1 / 48 kHz / 640 kbps (Original)
Навигация по главам: есть

\Alien.Covenant.2017.2160p.BluRay.x265.10bit.HDR.SpaceHD13.mkv
Format : Matroska
Format version : Version 4 / Version 2
File size : 20.2 GiB
Duration : 2 h 2 min
Overall bit rate : 23.7 Mb/s
Encoded date : UTC 2018-03-29 11:28:33
Writing application : mkvmerge v20.0.0 ('I Am The Sun') 64-bit
Writing library : libebml v1.3.5 + libmatroska v1.4.8
Cover : Yes
Attachments : cover.jpg.jpg

Video
ID : 1
Format : HEVC
Format/Info : High Efficiency Video Coding
Commercial name : HDR10
Format profile : Main 10@L5.1@High
Codec ID : V_MPEGH/ISO/HEVC
Duration : 2 h 2 min
Bit rate : 21.8 Mb/s
Width : 3 840 pixels
Height : 1 600 pixels
Display aspect ratio : 2.40:1
Frame rate mode : Constant
Frame rate : 23.976 (24000/1001) FPS
Color space : YUV
Chroma subsampling : 4:2:0 (Type 2)
Bit depth : 10 bits
Bits/(Pixel*Frame) : 0.148
Stream size : 18.6 GiB (92%)
Title : Alien.Covenant.2017.2160p.BluRay.x265.10bit.HDR.. / SpaceHD13
Writing library : x265 2.5+17-f8ae7afc1f61:[Windows][GCC 6.2.1][64 bit] 10bit
Encoding settings : cpuid=1173503 / frame-threads=4 / numa-pools=16 / wpp / no-pmode / no-pme / no-psnr / no-ssim / log-level=2 / input-csp=1 / input-res=3840x1600 / interlace=0 / total-frames=175587 / level-idc=51 / high-tier=1 / uhd-bd=0 / ref=4 / no-allow-non-conformance / repeat-headers / annexb / aud / hrd / info / hash=0 / no-temporal-layers / no-open-gop / min-keyint=1 / keyint=24 / bframes=4 / b-adapt=2 / b-pyramid / bframe-bias=0 / rc-lookahead=25 / lookahead-slices=4 / scenecut=40 / no-intra-refresh / ctu=64 / min-cu-size=8 / rect / no-amp / max-tu-size=32 / tu-inter-depth=1 / tu-intra-depth=1 / limit-tu=0 / rdoq-level=2 / dynamic-rd=0.00 / no-ssim-rd / signhide / no-tskip / nr-intra=0 / nr-inter=0 / no-constrained-intra / no-strong-intra-smoothing / max-merge=3 / limit-refs=3 / limit-modes / me=3 / subme=3 / merange=57 / temporal-mvp / weightp / no-weightb / no-analyze-src-pics / deblock=-2:-2 / no-sao / no-sao-non-deblock / rd=4 / no-early-skip / rskip / no-fast-intra / no-tskip-fast / no-cu-lossless / no-b-intra / no-splitrd-skip / rdpenalty=0 / psy-rd=2.00 / psy-rdoq=1.00 / no-rd-refine / analysis-reuse-mode=0 / no-lossless / cbqpoffs=0 / crqpoffs=0 / rc=crf / crf=17.0 / qcomp=0.60 / qpstep=4 / stats-write=0 / stats-read=0 / vbv-maxrate=160000 / vbv-bufsize=160000 / vbv-init=0.9 / crf-max=0.0 / crf-min=0.0 / ipratio=1.40 / pbratio=1.30 / aq-mode=1 / aq-strength=1.00 / cutree / zone-count=0 / no-strict-cbr / qg-size=32 / no-rc-grain / qpmax=69 / qpmin=0 / no-const-vbv / sar=1 / overscan=0 / videoformat=5 / range=0 / colorprim=9 / transfer=16 / colormatrix=9 / chromaloc=1 / chromaloc-top=2 / chromaloc-bottom=2 / display-window=0 / master-display=G(13250,34500)B(7500,3000)R(34000,16000)WP(15635,16450)L(10000000,50) / max-cll=0,0 / min-luma=0 / max-luma=1023 / log2-max-poc-lsb=8 / vui-timing-info / vui-hrd-info / slices=1 / opt-qp-pps / opt-ref-list-length-pps / no-multi-pass-opt-rps / scenecut-bias=0.05 / no-opt-cu-delta-qp / no-aq-motion / hdr / hdr-opt / no-dhdr10-opt / analysis-reuse-level=5 / scale-factor=0 / refine-intra=0 / refine-inter=0 / refine-mv=0 / no-limit-sao / ctu-info=0
Default : Yes
Forced : No
Color range : Limited
Color primaries : BT.2020
Transfer characteristics : PQ
Matrix coefficients : BT.2020 non-constant
Mastering display color pri : BT.709
Mastering display luminance : min: 0.0050 cd/m2, max: 1000 cd/m2

Audio #1
ID : 2
Format : DTS
Format/Info : Digital Theater Systems
Codec ID : A_DTS
Duration : 2 h 2 min
Bit rate mode : Constant
Bit rate : 768 kb/s
Channel(s) : 6 channels
Channel positions : Front: L C R, Side: L R, LFE
Sampling rate : 48.0 kHz
Frame rate : 93.750 FPS (512 SPF)
Bit depth : 24 bits
Compression mode : Lossy
Stream size : 670 MiB (3%)
Title : Alien.Covenant.2017.2160p.BluRay.x265.10bit.HDR.. / SpaceHD13.DUB
Language : Russian
Default : Yes
Forced : No

Audio #2
ID : 3
Format : AC-3
Format/Info : Audio Coding 3
Codec ID : A_AC3
Duration : 2 h 2 min
Bit rate mode : Constant
Bit rate : 640 kb/s
Channel(s) : 6 channels
Channel positions : Front: L C R, Side: L R, LFE
Sampling rate : 48.0 kHz
Frame rate : 31.250 FPS (1536 SPF)
Bit depth : 16 bits
Compression mode : Lossy
Stream size : 559 MiB (3%)
Title : Alien.Covenant.2017.2160p.BluRay.x265.10bit.HDR.. / SpaceHD13
Language : English
Service kind : Complete Main
Default : No
Forced : No

Audio #3
ID : 4
Format : AC-3
Format/Info : Audio Coding 3
Codec ID : A_AC3
Duration : 2 h 2 min
Bit rate mode : Constant
Bit rate : 448 kb/s
Channel(s) : 6 channels
Channel positions : Front: L C R, Side: L R, LFE
Sampling rate : 48.0 kHz
Frame rate : 31.250 FPS (1536 SPF)
Bit depth : 16 bits
Compression mode : Lossy
Stream size : 391 MiB (2%)
Title : Alien.Covenant.2017.2160p.BluRay.x265.10bit.HDR.. / SpaceHD13
Language : Ukrainian
Service kind : Complete Main
Default : No
Forced : No

Text #1
ID : 5
Format : PGS
Muxing mode : zlib
Codec ID : S_HDMV/PGS
Codec ID/Info : Picture based subtitle format used on BDs/HD-DVDs
Duration : 2 h 0 min
Bit rate : 26.0 kb/s
Count of elements : 2662
Stream size : 22.4 MiB (0%)
Title : Full
Language : Russian
Default : Yes
Forced : No

Text #2
ID : 6
Format : PGS
Muxing mode : zlib
Codec ID : S_HDMV/PGS
Codec ID/Info : Picture based subtitle format used on BDs/HD-DVDs
Duration : 2 h 1 min
Bit rate : 57.8 kb/s
Count of elements : 3934
Stream size : 50.4 MiB (0%)
Title : Comment
Language : Russian
Default : No
Forced : No

Text #3
ID : 7
Format : PGS
Muxing mode : zlib
Codec ID : S_HDMV/PGS
Codec ID/Info : Picture based subtitle format used on BDs/HD-DVDs
Duration : 1 h 54 min
Bit rate : 35.6 kb/s
Count of elements : 3418
Stream size : 29.0 MiB (0%)
Language : English
Default : No
Forced : No

Text #4
ID : 8
Format : PGS
Muxing mode : zlib
Codec ID : S_HDMV/PGS
Codec ID/Info : Picture based subtitle format used on BDs/HD-DVDs
Duration : 2 h 0 min
Bit rate : 26.5 kb/s
Count of elements : 2686
Stream size : 22.9 MiB (0%)
Title : Full
Language : Ukrainian
Default : No
Forced : No

Menu
00:00:00.000 : en:0:00:00.000
00:04:47.662 : en:0:04:47.662
00:13:07.495 : en:0:13:07.495
00:18:11.924 : en:0:18:11.924
00:22:46.448 : en:0:22:46.448
00:27:51.169 : en:0:27:51.169
00:33:12.907 : en:0:33:12.907
00:37:18.736 : en:0:37:18.736
00:42:19.912 : en:0:42:19.912
00:47:43.694 : en:0:47:43.694
00:52:04.371 : en:0:52:04.371
00:55:56.269 : en:0:55:56.269
01:00:17.447 : en:1:00:17.447
01:06:20.643 : en:1:06:20.643
01:11:25.030 : en:1:11:25.030
01:16:35.882 : en:1:16:35.882
01:21:10.031 : en:1:21:10.031
01:28:18.793 : en:1:28:18.793
01:31:21.559 : en:1:31:21.559
01:34:52.436 : en:1:34:52.436
01:39:23.666 : en:1:39:23.666
01:43:35.876 : en:1:43:35.876
01:50:49.309 : en:1:50:49.309
01:55:27.754 : en:1:55:27.754
pb.wtf



Скачать Чужой: Завет через торрент http://i105.fastpic.ru/big/2018/0406/b0/7ee1d75d7eb4d9b5e884b63da9d872b0.jpg Скачать фильм Чужой: Завет через торрент бесплантно в хорошем качестве Описание: Во время обследования удаленной планеты, расположенной на другой стороне галактики, экипаж колониального корабля «Завет» ... 10 10 6
Info! Золотая раздача, скачанное не засчитывается.
Торрент: Зарегистрирован [2018-04-06 14:20] · скачан: 94 раз
Статус: √ проверено
Размер: 20.22 GB
Как cкачать? Как скачать Чужой: Завет через торрент | qTorrent

% Раздел Тема Автор DL S | L
Фильмы [HD 720p, 1080p] (Хороший звук DUB, MVO) [ 9.19 GB ] Чужой: Завет / Alien: Covenant [2017 BDRip 1080p HEVC ()] Мичман37 Скачать
1 | 0
Фильмы 2017 [DVDrip, WEB-DLRip, HDrip] (DUB, MVO) [ 5.01 GB ] Чужой: Завет / Alien: Covenant [2017 WEB-DLRip-AVC Dub MVO 5 x AVO][Open Matte] от ExKinoRay morfyi Скачать
2 | 0
Фильмы (Blu-ray, BD-Remux, HDDVD) [ 45.91 GB ] Чужой: Завет / Alien: Covenant [2017 BD Remux 1080p] DUB + MVO + 4xAVO sheker187 Скачать
1 | 0
Фильмы 2017 [DVDrip, WEB-DLRip, HDrip] (DUB, MVO) [ 2.16 GB ] Чужой: Завет / Alien: Covenant [2017 BDRip-AVC] DUB [] - ExKinoRay Enigma2010 Скачать
4 | 0
Ultra HD (UHD: 2K, 4K, 8K) — видео сверхвысокой чёткости [ 43.99 GB ] Чужой: Завет / Alien: Covenant [2017 UHD BDRemux 2160] DUB+AVO [] bober100 Скачать
1 | 0
Фильмы (HD 720p, 1080p) (48-60 fps) [ 4.5 GB ] Чужой: Завет / Alien: Covenant [2017 BDRip 720p 60 fps от еnvy / NNNB] DUB еnvy Скачать
13 | 0
Фильмы [HD 720p, 1080p] (Хороший звук DUB, MVO) [ 17.08 GB ] Чужой: Завет / Alien: Covenant [2017 BDRip 1080p] DUB+MVO+AVO+VO [] bober100 Скачать
1 | 0

28-11-2019 20:33  

Отключить всю рекламу на сайте

    Дорогой пользователь! Огромная просьба, поблагодарите релизера, оцените раздачу и оставьте свои комментарий, если Вы скачали Чужой: Завет через торрент бесплатно! Внесите свою лепту в развитие PiratBit!
    Комментировать посты могут только пользователи прошедшие не сложную регистрацию
    Показать сообщения:    

    Чужой: Завет через торрент
    Скачать бесплатно Чужой: Завет
    Чужой: Завет скачать торрент
    Чужой: Завет смотреть онлайн
    Cкачать фильм Чужой: Завет бесплатно
    Чужой: Завет скачать торрент в хорошем качестве
    Чужой: Завет смотреть онлайн бесплатно в хорошем качестве


    Вы не можете начинать темы
    Вы не можете отвечать на сообщения
    Вы не можете редактировать свои сообщения
    Вы не можете удалять свои сообщения
    Вы не можете голосовать в опросах
    Вы не можете прикреплять файлы к сообщениям
    Вы можете скачивать файлы