Marvel's Avengers Deluxe Edition (супер цена) 159р. Внимание количество ограничено!!!

2 сезон

iTunes

iTunes

1

iTunes

iTunes

iTunes

WEBRip

iTunes

30
pack

Новость дня

ВАЖНО

!!Акция!!

Alien_RageХит недели

RePack

Horizon Zero Dawn

ИГРА 18+

pack

RePack

jed

!!Акция!!

Alien_Rage

RePack

fifa19

RePack

Assassins Creed: Odyssey

RePack

NEED FOR SPEED™ PAYBACK

4 сезон

9 сезон

Бесстыжие 9 сезон

Все сериалы

все сериалы на PB.wtf

RePack

FAR CRY 5
  

Сладкая любовь / The Sweetest Heart (Стивен Р. Монро) [2018, Мелодрама, HDTVRip 720p] MVO ["Синема УС"] pb.wtf

Сладкая любовь через торрент pb.wtf

Размер: 2.58 GB | Добавлен: 2 года 5 мес. назад | Торрент скачан:19 раз
Скачать  

06-04-2018 14:34 Сладкая любовь Скачать торрент  

Сладкая любовь / The Sweetest HeartГод выпуска: 2018
Страна: США
Жанр: Мелодрама
Продолжительность: 01:24:02
Перевод: Любительский (многоголосый) | "Синема УС"
Субтитры: отсутствуют

Режиссер: Стивен Р. Монро

rating

В ролях:

Джули Гонсало, Крис МакНалли, Тэмми Джиллис, Андреа Брукс, Джордан Буртчетт

Описание:

Мэдди, владелице кафе и кондитеру, помогает спасти ее бизнес привлекательный банкир по инвестициям, но их потенциальный роман осложняется, когда в город неожиданно возвращается ее первая любовь, Нэйт.

Качество: HDTVRip 720p
Формат: MKV

Видео: 4013 Кбит/с, 1280x716
Аудио#1: AC3, 2 ch, 384 Кбит/с
скриншот  скриншот  скриншот  

Общее
Уникальный идентификатор : 188129258181487150514699972708845524938 (0x8D88608E858D3C0596B36D1AAEBC97CA)
Полное имя : D:\The.Sweetest.Heart.2018.P.HDTV.72Op_KOSHARA.mkv
Формат : Matroska
Версия формата : Version 2
Размер файла : 2,58 Гбайт
Продолжительность : 1 ч. 24 м.
Режим общего битрейта : Переменный
Общий поток : 4399 Кбит/сек
Дата кодирования : UTC 2018-04-03 19:50:51
Программа кодирования : mkvmerge v8.3.0 ('Over the Horizon') 64bit
Библиотека кодирования : libebml v1.3.1 + libmatroska v1.4.2

Видео
Идентификатор : 1
Формат : AVC
Формат/Информация : Advanced Video Codec
Профиль формата : High@L4.1
Параметр CABAC формата : Да
Параметр RefFrames формата : 4 кадра
Идентификатор кодека : V_MPEG4/ISO/AVC
Продолжительность : 1 ч. 24 м.
Вид битрейта : Переменный
Битрейт : 4013 Кбит/сек
Максимальный битрейт : 4500 Кбит/сек
Ширина : 1280 пикселей
Высота : 716 пикселей
Соотношение сторон : 16:9
Режим частоты кадров : Постоянный
Частота кадров : 23,976 (24000/1001) кадра/сек
Стандарт вещания : Component
Цветовое пространство : YUV
Субдискретизация насыщенности : 4:2:0
Битовая глубина : 8 бит
Тип развёртки : Прогрессивная
Бит/(Пиксели*Кадры) : 0.179
Размер потока : 2,31 Гбайт (89%)
Default : Да
Forced : Нет
Цветовой диапазон : Limited
Основные цвета : BT.709
Характеристики трансфера : BT.709
Коэффициенты матрицы : BT.709

Аудио
Идентификатор : 2
Формат : AC-3
Формат/Информация : Audio Coding 3
Расширение режима : CM (complete main)
Параметр Endianness формата : Big
Идентификатор кодека : A_AC3
Продолжительность : 1 ч. 24 м.
Вид битрейта : Постоянный
Битрейт : 384 Кбит/сек
Каналы : 2 канала
Расположение каналов : Front: L R
Частота : 48,0 КГц
Частота кадров : 31,250 кадров/сек (1536 spf)
Метод сжатия : С потерями
Размер потока : 231 Мбайт (9%)
Default : Да
Forced : Нет

pb.wtf



Скачать Сладкая любовь через торрент http://img12.lostpic.net/2018/04/06/a5ba4aa11b4dbe64e8af4d650735d18c.jpg Скачать фильм Сладкая любовь через торрент бесплантно в хорошем качестве Описание: Мэдди, владелице кафе и кондитеру, помогает спасти ее бизнес привлекательный банкир по инвестициям, но их потенциальный роман ... 9.3 10 3
Торрент: Зарегистрирован [2018-04-06 14:34] · скачан: 19 раз
Статус: T временная
Размер: 2.58 GB
Как cкачать? Как скачать Сладкая любовь через торрент | qTorrent

% Раздел Тема Автор DL S | L
T Фильмы (мультфильмы) cо спонсором показа (Новинки AVI/MKV) [ 1.37 GB ] Сладкая любовь / The Sweetest Heart [2018 Мело HDTVRip] MVO ["Синема УС"] bober100 Скачать
1 | 0

28-11-2019 20:33  

Отключить всю рекламу на сайте

06-04-2018 15:49 Сладкая любовь Скачать торрент  

забираю.супруга с дочкой любят такую всякую лебуду.спасибо.pb.wtf



    Дорогой пользователь! Огромная просьба, поблагодарите релизера, оцените раздачу и оставьте свои комментарий, если Вы скачали Сладкая любовь через торрент бесплатно! Внесите свою лепту в развитие PiratBit!
    Комментировать посты могут только пользователи прошедшие не сложную регистрацию
    Показать сообщения:    

    Сладкая любовь через торрент
    Скачать бесплатно Сладкая любовь
    Сладкая любовь скачать торрент
    Сладкая любовь смотреть онлайн
    Cкачать фильм Сладкая любовь бесплатно
    Сладкая любовь скачать торрент в хорошем качестве
    Сладкая любовь смотреть онлайн бесплатно в хорошем качестве


    Вы не можете начинать темы
    Вы не можете отвечать на сообщения
    Вы не можете редактировать свои сообщения
    Вы не можете удалять свои сообщения
    Вы не можете голосовать в опросах
    Вы не можете прикреплять файлы к сообщениям
    Вы можете скачивать файлы