Ссылка на приватное зеркало всего за 1$. Внимание количество ограничено!!!

OK

1+1

iTunes

мы

OK

1

WEB-DLRip

Джокер

Пифагор

Ведьмак / The Witcher сериал

iTunes

ПШазам

ОК

Оно 2

iTunes

30
pack

Вам бонус

ВАЖНО

!!Акция!!

Alien_RageХит недели

RePack

Resident Evil 21

ИГРА 18+

pack

RePack

jed

RePack

fifa19

RePack

Assassins Creed: Odyssey

RePack

NEED FOR SPEED™ PAYBACK

4 сезон

9 сезон

Бесстыжие 9 сезон

Все сериалы

все сериалы на PB.wtf

RePack

FAR CRY 5
  

Твой выход, детка! / Schatz, nimm Du sie! (Свен Унтервальдт мл.) [2017, комедия, BDRip 720p] MVO [@MUZOBOZ@] pb.wtf

Твой выход, детка! через торрент pb.wtf

Размер: 4.14 GB | Добавлен: 1 год 9 мес. назад | Торрент скачан:70 раз
Скачать  

06-04-2018 18:07 Твой выход, детка! Скачать торрент  

Твой выход, детка! / Schatz, nimm Du sie!Год выпуска: 2017
Страна: Германия
Жанр: комедия
Продолжительность: 01:31:11
Перевод: Любительский (многоголосый) | @MUZOBOZ@
Субтитры: отсутствуют

Режиссер: Свен Унтервальдт мл.

rating

В ролях:

Каролин Кебекус, Максим Мехмет, Арина Прокофьева, Арсени Бультманн, Аксель Штайн, Ясмин Швирс, Патрисия Меден, Людгер Пистор, Йохен Шропп, Джэйми Бик

Описание:

С самого начала отношений страстные любовники Тони и Марк заводили друг друга с пол-оборота. В ход шли любые подручные средства. Но всему приходит конец. Как разойтись, чтобы не убить друг друга?..

Качество: BDRip 720p
Формат: MKV

Видео: 6053 Кбит/с, 1280x696
Аудио#1: AC3, 2 ch, 448 Кбит/с
скриншот  скриншот  скриншот  

Общее
Уникальный идентификатор : 210279098173926962073421555387122545974 (0x9E3247FBC0AF25CD98427895155B7536)
Полное имя : D:\Schatz.nimm.du.sie.2O17.P.BDRip.72Op_KOSHARA.mkv
Формат : Matroska
Версия формата : Version 2
Размер файла : 4,14 Гбайт
Продолжительность : 1 ч. 31 м.
Режим общего битрейта : Переменный
Общий поток : 6503 Кбит/сек
Дата кодирования : UTC 2018-04-06 03:30:50
Программа кодирования : mkvmerge v8.3.0 ('Over the Horizon') 64bit
Библиотека кодирования : libebml v1.3.1 + libmatroska v1.4.2

Видео
Идентификатор : 1
Формат : AVC
Формат/Информация : Advanced Video Codec
Профиль формата : High@L4.1
Параметр CABAC формата : Да
Параметр RefFrames формата : 4 кадра
Идентификатор кодека : V_MPEG4/ISO/AVC
Продолжительность : 1 ч. 31 м.
Вид битрейта : Переменный
Битрейт : 6053 Кбит/сек
Максимальный битрейт : 6700 Кбит/сек
Ширина : 1280 пикселей
Высота : 696 пикселей
Соотношение сторон : 1,85:1
Режим частоты кадров : Постоянный
Частота кадров : 23,976 (24000/1001) кадра/сек
Стандарт вещания : Component
Цветовое пространство : YUV
Субдискретизация насыщенности : 4:2:0
Битовая глубина : 8 бит
Тип развёртки : Прогрессивная
Бит/(Пиксели*Кадры) : 0.277
Размер потока : 3,77 Гбайт (91%)
Default : Да
Forced : Нет
Цветовой диапазон : Limited
Основные цвета : BT.709
Характеристики трансфера : BT.709
Коэффициенты матрицы : BT.709

Аудио
Идентификатор : 2
Формат : AC-3
Формат/Информация : Audio Coding 3
Расширение режима : CM (complete main)
Параметр Endianness формата : Big
Идентификатор кодека : A_AC3
Продолжительность : 1 ч. 31 м.
Вид битрейта : Постоянный
Битрейт : 448 Кбит/сек
Каналы : 2 канала
Расположение каналов : Front: L R
Частота : 48,0 КГц
Частота кадров : 31,250 кадров/сек (1536 spf)
Метод сжатия : С потерями
Размер потока : 292 Мбайт (7%)
Default : Да
Forced : Нет

pb.wtf



Скачать Твой выход, детка! через торрент http://img12.lostpic.net/2018/04/01/b94f8f6fcb4bc0858900a039b060c3be.jpg Скачать фильм Твой выход, детка! через торрент бесплантно в хорошем качестве Описание: С самого начала отношений страстные любовники Тони и Марк заводили друг друга с пол-оборота. В ход шли любые подручные средства. ... 10 10 5
Торрент: Зарегистрирован [2018-04-06 18:07] · скачан: 70 раз
Статус: # сомнительно
Размер: 4.14 GB
Как cкачать? Как скачать Твой выход, детка! через торрент | qTorrent

% Раздел Тема Автор DL S | L
# Фильмы (мультфильмы) cо спонсором показа (Новинки AVI/MKV) [ 4.17 GB ] Твой выход детка! / Schatz nimm Du sie! [2017 BDRip 720p] MVO [Line] bober100 Скачать
1 | 0
T Фильмы (мультфильмы) cо спонсором показа (Новинки AVI/MKV) [ 1.37 GB ] Твой выход детка! / Schatz nimm Du sie! [2017 HDRip] MVO [Line] bober100 Скачать
1 | 0
T Фильмы (мультфильмы) cо спонсором показа (Новинки AVI/MKV) [ 1.37 GB ] Твой выход детка! / Schatz nimm Du sie! [2017 HDRip] MVO [@MUZOBOZ@] bober100 Скачать
1 | 0

28-11-2019 20:33  

Отключить всю рекламу на сайте

    Дорогой пользователь! Огромная просьба, поблагодарите релизера, оцените раздачу и оставьте свои комментарий, если Вы скачали Твой выход, детка! через торрент бесплатно! Внесите свою лепту в развитие PiratBit!
    Комментировать посты могут только пользователи прошедшие не сложную регистрацию
    Показать сообщения:    

    Твой выход, детка! через торрент
    Скачать бесплатно Твой выход, детка!
    Твой выход, детка! скачать торрент
    Твой выход, детка! смотреть онлайн
    Cкачать фильм Твой выход, детка! бесплатно
    Твой выход, детка! скачать торрент в хорошем качестве
    Твой выход, детка! смотреть онлайн бесплатно в хорошем качестве


    Вы не можете начинать темы
    Вы не можете отвечать на сообщения
    Вы не можете редактировать свои сообщения
    Вы не можете удалять свои сообщения
    Вы не можете голосовать в опросах
    Вы не можете прикреплять файлы к сообщениям
    Вы можете скачивать файлы