Всегда рабочее зеркало без VPN и Proxy просто перед .vidak.icu напиши любое слово или цифру, Пример http://jzj3.vidak.icu

MVO

MVO

1 сезон

1

1 сезон

iTunes

1 сезон

13

1 сезон

Deluxe

pack

Рекомендуем

Repack

30

ВАЖНО

RePack

MK11

RePack

jed

RePack

fifa19

RePack

RDR2

RePack

NEED FOR SPEED™ PAYBACK

Кинопоиск HD

6 сезон

 Острые козырьки 6 сезон

Все сериалы

все сериалы на PB.wtf

RePack

FAR CRY 5
  
Magnet ссылка

Величайший шоумен / The Greatest Showman (Майкл Грэйси) [2017, драма, биография, мюзикл, UHD BDRemux 2160p] DUB (rus, ukr) [iTunes] pb.wtf

Величайший шоумен через торрент pb.wtf

Размер: 50.94 GB | Добавлен: 4 года 4 мес. назад | Торрент скачан:78 раз
Смотреть онлайн Величайший шоумен | Скачать    Ребята, помогите собрать деньги на оплату серверов!!!

06-04-2018 21:58 Величайший шоумен Скачать торрент  

Величайший шоуменThe Greatest Showman«Невозможное возможно»
Год выпуска: 2017
Страна: США
Жанр: драма, биография, мюзикл
Продолжительность: 01:44:49
Перевод: Дублированный | iTunes
Субтитры: Russian (Forced iTunes, Enigma), Ukrainian (Forced, full), English (Full, SDH, Commentary)

Режиссер: Майкл Грэйси

rating[

В ролях:


Хью Джекман (P.T. Barnum), Зак Эфрон (Phillip Carlyle), Мишель Уильямс (Charity Barnum), Ребекка Фергюсон (Jenny Lind), Зендея (Anne Wheeler), Кила Сеттл (Lettie Lutz), Яхья Абдул-Матин II (W.D. Wheeler), Остин Джонсон (Caroline Barnum), Эллис Рубин (Young Barnum), Скайлар Данн (Young Charity), Кэмерон Сили (Helen Barnum), Сэм Хамфри (Tom Thumb)
Описание:

Финеас Тейлор Барнум всегда мечтал войти в историю, но все его занятия не приносили ему удовольствия. И когда, казалось, весь мир обернулся против него, он решает пойти вслед за своей мечтой. Барнум создает завораживающее представление-сенсацию, которое стало рождением мирового шоу-бизнеса. Будучи никем и не имея ничего, он создал свой цирк и сделал его самым известным гастролирующим цирком в США, известность которого вышла далеко за пределы Американского континента. Во многом именно Финеас начал показывать людей с очень специфической внешностью (так называемое шоу уродов - «freakshow») и зарабатывать на этом деньги. У него были и сиамские близнецы, и человек с волосами на лице, и даже женщина-великанша. Много раз его цирк и построенные им музеи сгорали, но это его никогда не останавливало.

Биографическая драма-мюзикл снята режиссером Майклом Грейси, для которого данный фильм является дебютом в режиссерской карьере.

Качество: UHD BDRemux 2160p
Формат: MKV

Видео: HEVC, 58.2 Мбит/с, 3840x2160, 23.976 Кадр/с
Аудио#1: |RUS| AC-3, 48.0 kHz, 6 ch, 384 kb/s, CBR | Дублированный, iTunes |
Аудио#2: |UKR| AC-3, 48.0 kHz, 2 ch, 224 kb/s, CBR | Дублированный, iTunes |
Аудио#3: |ENG| TrueHD TrueHD+Atmos / TrueHD, / 48.0 kHz, Object Based / 8 ch, 4 572 kb/s, VBR | Original |
Аудио#4: |ENG| DTS MA / ES Matrix / Core, 48.0 kHz, 8 / 7 / 6 ch, 5 243 kb/s / 1 509 kb/s / 1 509 kb/s, VBR / CBR / CBR | Original |
Аудио#5: |ENG| AC-3, 48.0 kHz, 6 ch, 640 kb/s, CBR | Original |
Аудио#6: |ENG| AC-3, 48.0 kHz, 2 ch, 224 kb/s, CBR | Commentary by director Michael Gracey


Релиз от:
► Биографическая драма-мюзикл снята режиссером Майклом Грейси, для которого данный фильм является дебютом в режиссерской карьере.
► Хью Джекман мечтал сыграть эту роль с 2009 года.
► Роль Мишель Уильямс могли сыграть Кэри Маллиган и Эллен Пейдж.
► Во время своего турне актёр Хью Джекман исполнил ряд песен из этого фильма.
► Этот фильм - пятый мюзикл с Заком Эфроном.

скриншот  скриншот  скриншот  скриншот  скриншот  скриншот  

Общее
Уникальный идентификатор : 337007613854575080404408558316444109285 (0xFD894E354E9DA1909C2FC725547EC9E5)
Полное имя : The.Greatest.Showman.2017.UHD.BDRemux.2160p.HEVC.HDR.AC3.TrueHD.Atmos.7.1.IVA(RUS.UKR.ENG).ExKinoRay.mkv
Формат : Matroska
Версия формата : Version 4 / Version 2
Размер файла : 50,9 Гбайт
Продолжительность : 1 ч. 44 м.
Режим общего битрейта : Переменный
Общий поток : 69,6 Мбит/сек
Название фильма : Величайший шоумен / The Greatest Showman ( 2017 ) | BDRemux | HDR, 4K | IVA(RUS.UKR.ENG) | ExKinoRay
Дата кодирования : UTC 2018-04-06 20:18:05
Программа кодирования : mkvmerge v22.0.0 ('At The End Of The World') 64-bit
Библиотека кодирования : libebml v1.3.5 + libmatroska v1.4.8
Обложка : Yes

Видео
Идентификатор : 1
Формат : HEVC
Формат/Информация : High Efficiency Video Coding
Коммерческое название : HDR10
Профиль формата : Main [email protected]@High
Идентификатор кодека : V_MPEGH/ISO/HEVC
Продолжительность : 1 ч. 44 м.
Битрейт : 58,2 Мбит/сек
Ширина : 3840 пикселей
Высота : 2160 пикселей
Соотношение сторон : 16:9
Режим частоты кадров : Постоянный
Частота кадров : 23,976 (24000/1001) кадра/сек
Цветовое пространство : YUV
Субдискретизация насыщенности : 4:2:0 (Type 2)
Битовая глубина : 10 бит
Бит/(Пиксели*Кадры) : 0.292
Размер потока : 42,6 Гбайт (84%)
Заголовок : The.Greatest.Showman.2017.UHD.BDRemux.2160p.HEVC.HDR
Язык : English
Default : Да
Forced : Нет
Цветовой диапазон : Limited
Основные цвета : BT.2020
Характеристики трансфера : PQ
Коэффициенты матрицы : BT.2020 non-constant
MasteringDisplay_Luminance : min: 0.0050 cd/m2, max: 1000 cd/m2

Аудио #1
Идентификатор : 2
Формат : AC-3
Формат/Информация : Audio Coding 3
Идентификатор кодека : A_AC3
Продолжительность : 1 ч. 44 м.
Вид битрейта : Постоянный
Битрейт : 384 Кбит/сек
Каналы : 6 каналов
Расположение каналов : Front: L C R, Side: L R, LFE
Частота : 48,0 КГц
Частота кадров : 31,250 кадров/сек (1536 SPF)
Битовая глубина : 16 бит
Метод сжатия : С потерями
Размер потока : 288 Мбайт (1%)
Заголовок : | iTunes |
Язык : Russian
ServiceKind : Complete Main
Default : Да
Forced : Нет

Аудио #2
Идентификатор : 3
Формат : AC-3
Формат/Информация : Audio Coding 3
Идентификатор кодека : A_AC3
Продолжительность : 1 ч. 44 м.
Вид битрейта : Постоянный
Битрейт : 224 Кбит/сек
Каналы : 2 канала
Расположение каналов : Front: L R
Частота : 48,0 КГц
Частота кадров : 31,250 кадров/сек (1536 SPF)
Битовая глубина : 16 бит
Метод сжатия : С потерями
Размер потока : 168 Мбайт (0%)
Заголовок : | iTunes |
Язык : Ukrainian
ServiceKind : Complete Main
Default : Нет
Forced : Нет

Аудио #3
Идентификатор : 4
Формат : TrueHD
Профиль формата : TrueHD+Atmos / TrueHD
Идентификатор кодека : A_TRUEHD
Продолжительность : 1 ч. 44 м.
Вид битрейта : Переменный
Битрейт : 4572 Кбит/сек
Максимальный битрейт : 7779 Кбит/сек
Каналы : Object Based / 8 каналов
Расположение каналов : Object Based / Front: L C R, Side: L R, Back: L R, LFE
Частота : / 48,0 КГц
Частота кадров : 1200,000 кадров/сек (40 SPF)
Метод сжатия : Без потерь
Размер потока : 3,35 Гбайт (7%)
Заголовок : | Original, THD Atmos 7.1 |
Язык : English
Default : Нет
Forced : Нет

Аудио #4
Идентификатор : 5
Формат : DTS
Формат/Информация : Digital Theater Systems
Профиль формата : MA / ES Matrix / Core
Идентификатор кодека : A_DTS
Продолжительность : 1 ч. 44 м.
Вид битрейта : Переменный / Постоянный / Постоянный
Битрейт : 5243 Кбит/сек / 1509 Кбит/сек / 1509 Кбит/сек
Каналы : 8 каналов / 7 каналов / 6 каналов
Расположение каналов : Front: L C R, Side: L R, Back: L R, LFE / Front: L C R, Side: L R, Back: C, LFE / Front: L C R, Side: L R, LFE
Частота : 48,0 КГц
Частота кадров : 93,750 кадра/сек (512 SPF)
Битовая глубина : 24 бит
Метод сжатия : Без потерь / Lossy / Lossy
Размер потока : 3,84 Гбайт (8%)
Заголовок : | Original, MA |
Язык : English
Default : Нет
Forced : Нет

Аудио #5
Идентификатор : 6
Формат : AC-3
Формат/Информация : Audio Coding 3
Идентификатор кодека : A_AC3
Продолжительность : 1 ч. 44 м.
Вид битрейта : Постоянный
Битрейт : 640 Кбит/сек
Каналы : 6 каналов
Расположение каналов : Front: L C R, Side: L R, LFE
Частота : 48,0 КГц
Частота кадров : 31,250 кадров/сек (1536 SPF)
Битовая глубина : 16 бит
Метод сжатия : С потерями
Размер потока : 480 Мбайт (1%)
Заголовок : | Original, AC-3 Core |
Язык : English
ServiceKind : Complete Main
Default : Нет
Forced : Нет

Аудио #6
Идентификатор : 7
Формат : AC-3
Формат/Информация : Audio Coding 3
Идентификатор кодека : A_AC3
Продолжительность : 1 ч. 44 м.
Вид битрейта : Постоянный
Битрейт : 224 Кбит/сек
Каналы : 2 канала
Расположение каналов : Front: L R
Частота : 48,0 КГц
Частота кадров : 31,250 кадров/сек (1536 SPF)
Битовая глубина : 16 бит
Метод сжатия : С потерями
Размер потока : 168 Мбайт (0%)
Заголовок : | Commentary by director Michael Gracey |
Язык : English
ServiceKind : Complete Main
Default : Нет
Forced : Нет

Текст #1
Идентификатор : 8
Формат : UTF-8
Идентификатор кодека : S_TEXT/UTF8
Идентификатор кодека/Информация : UTF-8 Plain Text
Продолжительность : 1 ч. 36 м.
Битрейт : 39 бит/сек
ElementCount : 474
Размер потока : 27,6 Кбайт (0%)
Заголовок : Forced
Язык : Russian
Default : Да
Forced : Да

Текст #2
Идентификатор : 9
Формат : UTF-8
Идентификатор кодека : S_TEXT/UTF8
Идентификатор кодека/Информация : UTF-8 Plain Text
Продолжительность : 1 ч. 36 м.
Битрейт : 44 бит/сек
ElementCount : 534
Размер потока : 31,7 Кбайт (0%)
Заголовок : F/Songs (Enigma)
Язык : Russian
Default : Нет
Forced : Нет

Текст #3
Идентификатор : 10
Формат : UTF-8
Идентификатор кодека : S_TEXT/UTF8
Идентификатор кодека/Информация : UTF-8 Plain Text
Продолжительность : 1 ч. 43 м.
Битрейт : 92 бит/сек
ElementCount : 1388
Размер потока : 70,4 Кбайт (0%)
Заголовок : Full
Язык : Russian
Default : Нет
Forced : Нет

Текст #4
Идентификатор : 11
Формат : UTF-8
Идентификатор кодека : S_TEXT/UTF8
Идентификатор кодека/Информация : UTF-8 Plain Text
Продолжительность : 1 ч. 36 м.
Битрейт : 44 бит/сек
ElementCount : 559
Размер потока : 31,6 Кбайт (0%)
Заголовок : Forced
Язык : Ukrainian
Default : Нет
Forced : Да

Текст #5
Идентификатор : 12
Формат : UTF-8
Идентификатор кодека : S_TEXT/UTF8
Идентификатор кодека/Информация : UTF-8 Plain Text
Продолжительность : 1 ч. 43 м.
Битрейт : 98 бит/сек
ElementCount : 1488
Размер потока : 75,2 Кбайт (0%)
Заголовок : Full
Язык : Ukrainian
Default : Нет
Forced : Нет

Текст #6
Идентификатор : 13
Формат : UTF-8
Идентификатор кодека : S_TEXT/UTF8
Идентификатор кодека/Информация : UTF-8 Plain Text
Продолжительность : 1 ч. 36 м.
Битрейт : 77 бит/сек
ElementCount : 1335
Размер потока : 54,5 Кбайт (0%)
Заголовок : Full
Язык : English
Default : Нет
Forced : Нет

Текст #7
Идентификатор : 14
Формат : UTF-8
Идентификатор кодека : S_TEXT/UTF8
Идентификатор кодека/Информация : UTF-8 Plain Text
Продолжительность : 1 ч. 43 м.
Битрейт : 77 бит/сек
ElementCount : 1864
Размер потока : 58,7 Кбайт (0%)
Заголовок : SDH
Язык : English
Default : Нет
Forced : Нет

Текст #8
Идентификатор : 15
Формат : UTF-8
Идентификатор кодека : S_TEXT/UTF8
Идентификатор кодека/Информация : UTF-8 Plain Text
Продолжительность : 1 ч. 36 м.
Битрейт : 77 бит/сек
ElementCount : 1176
Размер потока : 55,3 Кбайт (0%)
Заголовок : Commentary by director Michael Gracey
Язык : English
Default : Нет
Forced : Нет

Текст #9
Идентификатор : 16
Формат : PGS
Идентификатор кодека : S_HDMV/PGS
Идентификатор кодека/Информация : Picture based subtitle format used on BDs/HD-DVDs
Продолжительность : 1 ч. 36 м.
Битрейт : 54,2 Кбит/сек
ElementCount : 2359
Размер потока : 37,5 Мбайт (0%)
Заголовок : English (Commentary)
Язык : English
Default : Нет
Forced : Нет

Меню
00:00:00.000 : en:Chapter 1
00:03:21.618 : en:Chapter 2
00:11:33.985 : en:Chapter 3
00:16:21.314 : en:Chapter 4
00:21:13.731 : en:Chapter 5
00:25:04.169 : en:Chapter 6
00:32:10.178 : en:Chapter 7
00:36:09.626 : en:Chapter 8
00:41:38.413 : en:Chapter 9
00:44:41.053 : en:Chapter 10
00:48:24.151 : en:Chapter 11
00:53:11.146 : en:Chapter 12
00:56:20.711 : en:Chapter 13
01:01:34.816 : en:Chapter 14
01:07:33.883 : en:Chapter 15
01:12:00.983 : en:Chapter 16
01:18:23.699 : en:Chapter 17
01:22:07.131 : en:Chapter 18
01:29:04.798 : en:Chapter 19
01:37:09.449 : en:Chapter 20

pb.wtf



Скачать Величайший шоумен через торрент https://pic1.kartinco.top/images/11/3g6ad.jpg Скачать, смотреть онлайн Величайший шоумен бесплантно в хорошем качестве Описание: Финеас Тейлор Барнум всегда мечтал войти в историю, но все его занятия не приносили ему удовольствия. И когда, казалось, весь мир ... 8.2 10 5
Info! Золотая раздача, скачанное не засчитывается.
Торрент: Зарегистрирован [2018-04-06 21:58] · скачан: 78 раз
Статус: √ проверено
Размер: 50.94 GB
Как cкачать? Как скачать Величайший шоумен через торрент | UTorrent

% Раздел Тема Автор DL S | L
Ultra HD (UHD: 2K, 4K, 8K) — видео сверхвысокой чёткости [ 58.78 GB ] Величайший шоумен / The Greatest Showman [2017 биография мюзикл UHD Blu-ray 2160p] DUB sheker187 Скачать
1 | 0
Ultra HD (UHD: 2K, 4K, 8K) — видео сверхвысокой чёткости [ 50.47 GB ] Величайший шоумен / The Greatest Showman [2017 биография мюзикл UHD BDRemux 2160p] DUB sheker187 Скачать
1 | 0
Фильмы 2017 [DVDrip, WEB-DLRip, HDrip] (DUB, MVO) [ 1.87 GB ] Величайший шоумен / The Greatest Showman [2017 биография мюзикл BDRip-AVC] () - ExKinoRay Enigma2010 Скачать
1 | 0
Фильмы [HD 720p, 1080p] (Хороший звук DUB, MVO) [ 8.05 GB ] Величайший шоумен / The Greatest Showman [2017 биография мюзикл BDRip 1080p] DUB [] bober100 Скачать
1 | 0
Ultra HD (UHD: 2K, 4K, 8K) — видео сверхвысокой чёткости [ 13.9 GB ] Величайший шоумен / The Greatest Showman [2017 биография мюзикл UHD BDRip 2160p] DUB [] bober100 Скачать
1 | 0
Фильмы (Blu-ray, BD-Remux, HDDVD) [ 22.34 GB ] Величайший шоумен / The Greatest Showman [2017 биография мюзикл BD Remux 1080p] DUB [] bober100 Скачать
1 | 0
Фильмы 2017 [DVDrip, WEB-DLRip, HDrip] (DUB, MVO) [ 746 MB ] Величайший шоумен / The Greatest Showman [2017 биография мюзикл HDRip] DUB [] bober100 Скачать
1 | 0

28-11-2019 20:33  

Отключить вcю реклaмy на сайте

06-04-2018 22:30 Величайший шоумен Скачать торрент  

я ДУМАЮ ДИСК ЗАДОХНЕЦТСЯpb.wtf



06-04-2018 22:40 Величайший шоумен Скачать торрент  

нУ ВСЁЖ КАЧНУ а регалий как у "Брежнева" заслужил pb.wtf



    Дорогой пользователь! Огромная просьба, поблагодарите релизера, оцените раздачу и оставьте свои комментарий, если Вы скачали Величайший шоумен через торрент бесплатно!
    Комментировать посты могут только пользователи прошедшие не сложную регистрацию
    Показать сообщения:    

    Величайший шоумен через торрент
    Скачать бесплатно Величайший шоумен
    Величайший шоумен скачать торрент
    Величайший шоумен смотреть онлайн
    Cкачать фильм Величайший шоумен бесплатно
    Величайший шоумен скачать торрент в хорошем качестве
    Величайший шоумен смотреть онлайн бесплатно в хорошем качестве


    Вы не можете начинать темы
    Вы не можете отвечать на сообщения
    Вы не можете редактировать свои сообщения
    Вы не можете удалять свои сообщения
    Вы не можете голосовать в опросах
    Вы не можете прикреплять файлы к сообщениям
    Вы можете скачивать файлы