Всегда рабочее зеркало просто перед .vidak.icu напиши любое слово или цифру, Пример http://wmx.vidak.icu

>

7.4

iTunes

7.4

2 сезон

9.4

1 сезон

1

7.4

2 сезон

7.2

iTunes

6.0

MVO

13

6.1

iTunes

8.3

Пиратка

30

ULTIMATE

pack

9.9

Лицензия

ВАЖНО

ИГРА 18+

pack

7.3

RePack

MK11

7.7

RePack

jed

7.8

RePack

fifa19

8.5

RePack

RDR2

RePack

NEED FOR SPEED™ PAYBACK

1 сезон

9 сезон

Бесстыжие 9 сезон

Все сериалы

все сериалы на PB.wtf

RePack

FAR CRY 5

Anonymous, доброе утро, мы катастрофически не успеваем собрать деньги на оплату серверов, помогите нам пожалуйста 5,10,15р., для нас важна любая помощь . В качестве благодарности мы отключим Вам всю рекламу на сайте (укажите свой ник в строку Ваше имя)!

×
  
Magnet ссылка

Добрейшее создание / Buona come il pane (Риккардо Сесани) [1981 г., Комедия, эротика, DVDRip-AVC, Авторский (одноголосый)] от ExKinoRay pb.wtf

Добрейшее создание через торрент pb.wtf

Размер: 1.44 GB | Добавлен: 3 года 9 мес. назад | Торрент скачан:52 раза
Смотреть онлайн Добрейшее создание | Скачать    Ребята, помогите собрать деньги на оплату серверов!!!

07-04-2018 03:27 Добрейшее создание Скачать торрент  

Добрейшее создание / Buona come il pane
Год выпуска: 1981
Страна: Италия
Жанр: Комедия, эротика
Продолжительность: 01:21:39
Перевод: Авторский (одноголосый)

Режиссер: Риккардо Сесани

rating

В ролях: Кармен Руссо, Саверио Маркони, Ада Пометти, Умберто Рао, Джулиан Дженкинс, Джефри Коплстон, Ренато Чеккетто, Джанфранко Барра

Описание: Красивая и сердечная девушка Чинция с грацией выполняет самую древнюю профессию в мире, имея свой определенный, небольшой круг постоянных клиентов. Которые в замен просят лишь немного чувства и хорошую дозу веселья. И все бы ни чего, но Чинция несчастна в любви, так как не может найти свою единственную вторую половинку. Пока в один прекрасный день...

Доп. информация: Перевод: Авторский одноголосый (Мудров)

Качество: DVDRip-AVC
Формат: MKV
Видео кодек: MPEG4
Аудио кодек: AC3
Видео: MPEG-4 AVC, 2200 Кбит/с, 720x576@1024x576, 25 кадров/сек
Аудио#1: Русский (AC3, 2 ch, 160 Кбит/с, 48 КГц)
Аудио#2: Итальянский (AC3, 2 ch, 160 Кбит/с, 48 КГц)
Релиз от:




raw [info]: 720x576p 64:45 @ 25/1 fps (cfr)
x264 [info]: using SAR=64/45
x264 [info]: using cpu capabilities: MMX2 SSE2Fast LZCNT
x264 [info]: profile High, level 4.1
x264 [info]: frame I:677 Avg QP:16.00 size: 47990
x264 [info]: frame P:28498 Avg QP:18.19 size: 22806
x264 [info]: frame B:93318 Avg QP:20.02 size: 7127
x264 [info]: consecutive B-frames: 2.4% 2.7% 22.6% 4.6% 3.9% 63.3% 0.3% 0.0% 0.1% 0.0% 0.0% 0.0% 0.0% 0.0% 0.0% 0.0% 0.0%
-----
Общее
Уникальный идентификатор : 199565841479519625584857520752333019657 (0x9622FBA5C589767085F22144D615DA09)
Полное имя : D:\ExKinoRay\Dobreishee.Sozdanie.1981.DVDRip-AVC.ExKinoRay.mkv
Формат : Matroska
Версия формата : Version 2
Размер файла : 1,44 Гбайт
Продолжительность : 1 ч. 21 м.
Общий поток : 2522 Кбит/сек
Дата кодирования : UTC 2018-04-06 14:10:38
Программа кодирования : mkvmerge v7.8.0 ('River Man') 32bit built on Apr 3 2015 12:11:22
Библиотека кодирования : libebml v1.3.1 + libmatroska v1.4.2

Видео
Идентификатор : 1
Формат : AVC
Формат/Информация : Advanced Video Codec
Профиль формата : High@L4.1
Параметр CABAC формата : Да
Параметр ReFrames формата : 14 кадров
Идентификатор кодека : V_MPEG4/ISO/AVC
Продолжительность : 1 ч. 21 м.
Битрейт : 2200 Кбит/сек
Ширина : 720 пикселей
Высота : 576 пикселей
Соотношение сторон : 16:9
Режим частоты кадров : Постоянный
Частота кадров : 25,000 кадров/сек
Стандарт вещания : PAL
Цветовое пространство : YUV
Субдискретизация насыщенности : 4:2:0
Битовая глубина : 8 бит
Тип развёртки : Прогрессивная
Бит/(Пиксели*Кадры) : 0.212
Размер потока : 1,23 Гбайт (85%)
Библиотека кодирования : x264 core 148 r2638 7599210
Настройки программы : cabac=1 / ref=14 / deblock=1:-2:-2 / analyse=0x3:0x133 / me=umh / subme=10 / psy=1 / psy_rd=1.05:0.15 / mixed_ref=1 / me_range=32 / chroma_me=1 / trellis=2 / 8x8dct=1 / cqm=0 / deadzone=21,11 / fast_pskip=0 / chroma_qp_offset=-3 / threads=4 / lookahead_threads=1 / sliced_threads=0 / nr=0 / decimate=0 / interlaced=0 / bluray_compat=0 / constrained_intra=0 / bframes=16 / b_pyramid=2 / b_adapt=2 / b_bias=0 / direct=3 / weightb=1 / open_gop=0 / weightp=2 / keyint=250 / keyint_min=25 / scenecut=40 / intra_refresh=0 / rc=2pass / mbtree=0 / bitrate=2200 / ratetol=1.0 / qcomp=0.60 / qpmin=0 / qpmax=69 / qpstep=4 / cplxblur=20.0 / qblur=0.5 / ip_ratio=1.40 / pb_ratio=1.30 / aq=1:1.00
Язык : English
Default : Да
Forced : Нет
Цветовой диапазон : Limited
Основные цвета : BT.601 NTSC
Характеристики трансфера : BT.601
Коэффициенты матрицы : BT.601

Аудио #1
Идентификатор : 2
Формат : AC-3
Формат/Информация : Audio Coding 3
Расширение режима : CM (complete main)
Параметр Endianness формата : Big
Идентификатор кодека : A_AC3
Продолжительность : 1 ч. 21 м.
Вид битрейта : Постоянный
Битрейт : 160 Кбит/сек
Каналы : 2 канала
Расположение каналов : Front: L R
Частота : 48,0 КГц
Частота кадров : 31,250 кадров/сек (1536 spf)
Метод сжатия : С потерями
Размер потока : 93,5 Мбайт (6%)
Заголовок : Мудров
Язык : Russian
Default : Да
Forced : Нет

Аудио #2
Идентификатор : 3
Формат : AC-3
Формат/Информация : Audio Coding 3
Расширение режима : CM (complete main)
Параметр Endianness формата : Big
Идентификатор кодека : A_AC3
Продолжительность : 1 ч. 21 м.
Вид битрейта : Постоянный
Битрейт : 160 Кбит/сек
Каналы : 2 канала
Расположение каналов : Front: L R
Частота : 48,0 КГц
Частота кадров : 31,250 кадров/сек (1536 spf)
Метод сжатия : С потерями
Размер потока : 93,5 Мбайт (6%)
Язык : Italian
Default : Нет
Forced : Нет

pb.wtf



Скачать Добрейшее создание через торрент https://c.radikal.ru/c02/1804/89/772631ed4a1b.jpg Скачать, смотреть онлайн Добрейшее создание бесплантно в хорошем качестве Описание: Красивая и сердечная девушка Чинция с грацией выполняет самую древнюю профессию в мире, имея свой определенный, небольшой круг ... 9.3 10 4
Info! Золотая раздача, скачанное не засчитывается.
Торрент: Зарегистрирован [2018-04-07 03:27] · скачан: 52 раз
Статус: √ проверено
Размер: 1.44 GB
Как cкачать? Как скачать Добрейшее создание через торрент | UTorrent

28-11-2019 20:33  

Отключить всю рекламу на сайте

07-04-2018 06:09 Добрейшее создание Скачать торрент  

Топик был перенесен из форума Оформление раздач (Кино, Видео и ТВ) в форум Фильмы с авторской озвучкой


-Lexx-pb.wtf



    Дорогой пользователь! Огромная просьба, поблагодарите релизера, оцените раздачу и оставьте свои комментарий, если Вы скачали Добрейшее создание через торрент бесплатно!
    Комментировать посты могут только пользователи прошедшие не сложную регистрацию
    Показать сообщения:    

    Добрейшее создание через торрент
    Скачать бесплатно Добрейшее создание
    Добрейшее создание скачать торрент
    Добрейшее создание смотреть онлайн
    Cкачать фильм Добрейшее создание бесплатно
    Добрейшее создание скачать торрент в хорошем качестве
    Добрейшее создание смотреть онлайн бесплатно в хорошем качестве


    Вы не можете начинать темы
    Вы не можете отвечать на сообщения
    Вы не можете редактировать свои сообщения
    Вы не можете удалять свои сообщения
    Вы не можете голосовать в опросах
    Вы не можете прикреплять файлы к сообщениям
    Вы можете скачивать файлы