Ссылка на приватное зеркало нашего сайта всего за 1$. Внимание количество ограничено!!!

2 сезон

iTunes

1 сезон

1

iTunes

iTunes

iTunes

1 сезон

RePack

30

ИГРА 18+

pack

ВАЖНО

!!Акция!!

Alien_RageХит недели

RePack

MK11
pack

Забери бонус

RePack

jed

!!Акция!!

Alien_Rage

RePack

fifa19

RePack

Assassins Creed: Odyssey

RePack

NEED FOR SPEED™ PAYBACK

4 сезон

9 сезон

Бесстыжие 9 сезон

Все сериалы

все сериалы на PB.wtf

RePack

FAR CRY 5
  

Лишний / Серия 1-4 из 4 / (Руслан Ибрагимов) [2018 г., Детектив, SATRip] pb.wtf

Лишний через торрент pb.wtf

Размер: 2.6 GB | Добавлен: 2 года 6 мес. назад | Торрент скачан:256 раз
Скачать  

07-04-2018 09:17 Лишний Скачать торрент  

Лишний / (Серия 1-4 из 4) /
Год выпуска: 2018
Страна: Россия
Жанр: Детектив
Продолжительность: 4 х 00:46:00
Субтитры: Нет

Режиссер: Руслан Ибрагимов

В ролях: Елена Мартыненко, Александр Макагон, Владимир Стержаков, Кирилл Балобан, Владимир Колганов, Максим Брызгалин, Элис Дарс

Описание: Неожиданно умирает основатель и владелец крупной фармацевтической компании Георг Тарманов. Его взрослые сыновья Борис и Виктор уже решили, как избавятся от сестры Анны в совете директоров и приберут отцовский бизнес к рукам. Однако во время оглашения завещания, оставленного Тармановым, выясняется, что ни один из детей Георга никакого отношения к наследству не имеет. Все состояние Тарманова завещано внуку Максиму - сыну Анны, утонувшему много лет назад. А вскоре журналистка Энка на железнодорожной платформе обращает внимание на молодого человека в несознательном состоянии. В полиции он утверждает, что его зовут Максим, и он является внуком олигарха Георга Тарманова...

Качество: SATRip
Формат: AVI
Видео кодек: XviD
Аудио кодек: MP3
Видео: 720x400 (1.80:1), 25 fps, XviD build 50 ~1799 kbps
Аудио#1: 48 kHz, MPEG Layer 3, 2 ch, ~128.00 kbps
скриншот   скриншот   скриншот   скриншот  

General
Complete name : H:\релизы.торрентфайл\Lishniy.SATRip.[www.riperam.org]\Lishniy.01.SATRip.[www.riperam.org].avi
Format : AVI
Format/Info : Audio Video Interleave
File size : 652 MiB
Duration : 47mn 0s
Overall bit rate : 1 938 Kbps
Writing application : VirtualDubMod 1.5.10.3 | www.virtualdub-fr.org || (build 2550/release)
Writing library : VirtualDubMod build 2550/release

Video
ID : 0
Format : MPEG-4 Visual
Format profile : Advanced Simple@L5
Format settings, BVOP : 2
Format settings, QPel : No
Format settings, GMC : No warppoints
Format settings, Matrix : Default (H.263)
Codec ID : XVID
Codec ID/Hint : XviD
Duration : 47mn 0s
Bit rate : 1 800 Kbps
Width : 720 pixels
Height : 400 pixels
Display aspect ratio : 16:9
Frame rate : 25.000 fps
Color space : YUV
Chroma subsampling : 4:2:0
Bit depth : 8 bits
Scan type : Progressive
Compression mode : Lossy
Bits/(Pixel*Frame) : 0.250
Stream size : 605 MiB (93%)
Writing library : XviD 1.2.1 (UTC 2008-12-04)

Audio
ID : 1
Format : MPEG Audio
Format version : Version 1
Format profile : Layer 3
Mode : Joint stereo
Mode extension : MS Stereo
Codec ID : 55
Codec ID/Hint : MP3
Duration : 47mn 0s
Bit rate mode : Constant
Bit rate : 128 Kbps
Channel(s) : 2 channels
Sampling rate : 48.0 KHz
Compression mode : Lossy
Stream size : 43.0 MiB (7%)
Alignment : Aligned on interleaves
Interleave, duration : 40 ms (1.00 video frame)
Interleave, preload duration : 504 ms
Writing library : LAME3.99r
Encoding settings : -m j -V 4 -q 9 -lowpass 17 -b 128

Внимание! Раздача ведётся путём добавления новых серий; при каждом добавлении создётся новый торрент. Чтобы начать докачку новой серии, пользователям необходимо сделать следующее:
  • Остановить скачивание,
  • Удалить старый торрент у себя из клиента (старые серии удалять не надо),
  • Скачать новый торрент и запустить его у себя в клиенте вместо старого, при этом указать клиенту путь в старую папку куда и должно происходить скачивание новых серий.
Ваш клиент при этом должен произвести хеширование (проверку) старой папки (если не производит сам - помогите ему сделать это), и будет докачивать только те серии которых у вас ещё нет. Старые серии при этом не удаляются, а продолжают раздаваться!

Eсли вы уже удалили старые серии, то предотвратить повторную закачку старых серий можно, отжав галочку в соответсвующих местах при запуске нового торрента. По возможности, желательно не удалять старые серии как можно дольше чтобы релизёр не столько продолжал раздавать старые серии, а смог сконцентрироваться на новых.
pb.wtf



Скачать Лишний через торрент http://i104.fastpic.ru/big/2018/0407/08/23f1de2128263fe5ec630ff30251a508.jpg Скачать фильм Лишний через торрент бесплантно в хорошем качестве Описание: Неожиданно умирает основатель и владелец крупной фармацевтической компании Георг Тарманов. Его взрослые сыновья Борис и Виктор ... 9 10 10
Торрент: Зарегистрирован [2018-04-07 11:49] · скачан: 256 раз
Статус: √ проверено
Размер: 2.6 GB
Как cкачать? Как скачать Лишний через торрент | qTorrent

% Раздел Тема Автор DL S | L
Наши сериалы [ 7.24 GB ] Лишний / Серии: 1-4 из 4 [2017 WEB-DL 1080p] bober100 Скачать
1 | 0
Наши сериалы [ 2.27 GB ] Лишний / Серии: 1-4 из 4 [2018 SATRip-AVC] aleksan55 Скачать
1 | 0
Наши сериалы [ 4.86 GB ] Экстренный вызов : Лишний свидетель/1 сезон 2006г Доктор смерть/2 сезон / [2008 ьная DVDRip] -=Cherry=- Скачать
1 | 0

28-11-2019 20:33  

Отключить всю рекламу на сайте

07-04-2018 11:49 Лишний Скачать торрент  

добавил 2-4 сpb.wtf



07-04-2018 16:57 Лишний Скачать торрент  

Спасибо. pb.wtf



    Дорогой пользователь! Огромная просьба, поблагодарите релизера, оцените раздачу и оставьте свои комментарий, если Вы скачали Лишний через торрент бесплатно! Внесите свою лепту в развитие PiratBit!
    Комментировать посты могут только пользователи прошедшие не сложную регистрацию
    Показать сообщения:    

    Лишний через торрент
    Скачать бесплатно Лишний
    Лишний скачать торрент
    Лишний смотреть онлайн
    Cкачать фильм Лишний бесплатно
    Лишний скачать торрент в хорошем качестве
    Лишний смотреть онлайн бесплатно в хорошем качестве


    Вы не можете начинать темы
    Вы не можете отвечать на сообщения
    Вы не можете редактировать свои сообщения
    Вы не можете удалять свои сообщения
    Вы не можете голосовать в опросах
    Вы не можете прикреплять файлы к сообщениям
    Вы можете скачивать файлы