1 сезон

1 сезон

iTunes

1

КиноПоиск HD

Кинопоиск HD

iTunes

13

1 сезон

RePack

30

Новинка

ВАЖНО

ИГРА 18+

pack

RePack

MK11
pack

Легкие деньги

RePack

jed

RePack

fifa19

RePack

RDR2

RePack

NEED FOR SPEED™ PAYBACK

4 сезон

9 сезон

Бесстыжие 9 сезон

Все сериалы

все сериалы на PB.wtf

RePack

FAR CRY 5
  
Magnet ссылка

Приключения гангстеров в Нью-Йорке / La leggenda di Al, John e Jack (Альдо Баглио, Джакомо Паретти, Джованни Сторти) [2002 г., Комедия, DVDRip-AVC, Дубляж] от ExKinoRay pb.wtf

Приключения гангстеров в Нью-Йорке через торрент pb.wtf

Размер: 2.27 GB | Добавлен: 3 года назад | Торрент скачан:24 раза
Скачать  

08-04-2018 08:53 Приключения гангстеров в Нью-Йорке Скачать торрент  

Приключения гангстеров в Нью-Йорке / La leggenda di Al John e Jack
Год выпуска: 2002
Страна: Италия
Жанр: Комедия
Продолжительность: 01:41:26
Перевод: Дубляж
Субтитры: Русские

Режиссер: Альдо Баглио, Джакомо Паретти, Джованни Сторти

Премьера в мире: 11 декабря 2002

rating

В ролях: Альдо Баглио, Джакомо Паретти, Джованни Сторти, Альдо Маччоне, Антонио Катания, Джованни Эспозито, Ивано Марескотти, Паоло Дель’Орто, Джорджио Чентаморе, Люсия Гуззарди

Описание: Нью-Йорк, 1959 год. Известный авторитет нанимает трех гангстеров, чтобы избавиться от некоего "Фрэнки". Эти трое наемных убийц не только немного не в себе, а что еще хуже, один из них по имени Ал - попросту потерял память. Горе партнеры Ала в этом приключении - Джон и Джек - пытаются помочь своему страдающему амнезией другу вспомнить то, что заставило их теперь прятаться от своего босса. Босс же, обнаружив, что Ал, Джон и Джек в полнейшей неразберихе замочили совершенно другого человека, решает их судьбу жребием. Но по счастливой случайности, у босса всегда было плохо с математикой, и 3+4 оказывается ровно "8". Шанс выпал, но использовать его оказалось заданием не из легких... Теперь гангстеры-шалопаи должны придумать план, чтобы подставить босса и выйти сухими из воды...

Качество: DVDRip-AVC
Формат: MKV
Видео кодек: MPEG4
Аудио кодек: AC3
Видео: MPEG-4 AVC, 2300 Кбит/с, 702x430@998x430, 25 кадров/сек
Аудио#1: Русский (AC3, 6 ch, 448 Кбит/с, 48 КГц)
Аудио#2: Итальянский (AC3, 6 ch, 448 Кбит/с, 48 КГц)
Релиз от:




raw [info]: 702x430p 64:45 @ 25/1 fps (cfr)
x264 [info]: using SAR=64/45
x264 [info]: using cpu capabilities: MMX2 SSE2Fast LZCNT
x264 [info]: profile High, level 4.1
x264 [info]: frame I:1037 Avg QP:15.25 size: 43592
x264 [info]: frame P:30685 Avg QP:17.43 size: 21640
x264 [info]: frame B:120436 Avg QP:18.96 size: 8638
x264 [info]: consecutive B-frames: 1.5% 1.9% 7.7% 16.3% 15.3% 35.7% 14.2% 2.0% 1.6% 1.7% 0.7% 0.3% 0.6% 0.2% 0.2% 0.1% 0.2%
-----
Общее
Уникальный идентификатор : 196107509499101131637390478145727721609 (0x9388EEB76CF32AE2A4FA7BBE6D5B7089)
Полное имя : D:\ExKinoRay\Prikl.gangsterov.2002.DVDRip-AVC.ExKinoRay.mkv
Формат : Matroska
Версия формата : Version 2
Размер файла : 2,27 Гбайт
Продолжительность : 1 ч. 41 м.
Общий поток : 3198 Кбит/сек
Дата кодирования : UTC 2018-04-08 04:32:51
Программа кодирования : mkvmerge v7.8.0 ('River Man') 32bit built on Apr 3 2015 12:11:22
Библиотека кодирования : libebml v1.3.1 + libmatroska v1.4.2

Видео
Идентификатор : 1
Формат : AVC
Формат/Информация : Advanced Video Codec
Профиль формата : High@L4.1
Параметр CABAC формата : Да
Параметр ReFrames формата : 14 кадров
Идентификатор кодека : V_MPEG4/ISO/AVC
Продолжительность : 1 ч. 41 м.
Битрейт : 2300 Кбит/сек
Ширина : 702 пикселя
Высота : 430 пикселей
Соотношение сторон : 2,35:1
Соотношение сторон в оригинале : 2,35:1
Режим частоты кадров : Постоянный
Частота кадров : 25,000 кадров/сек
Цветовое пространство : YUV
Субдискретизация насыщенности : 4:2:0
Битовая глубина : 8 бит
Тип развёртки : Прогрессивная
Бит/(Пиксели*Кадры) : 0.305
Размер потока : 1,59 Гбайт (70%)
Библиотека кодирования : x264 core 148 r2638 7599210
Настройки программы : cabac=1 / ref=14 / deblock=1:-2:-2 / analyse=0x3:0x133 / me=umh / subme=10 / psy=1 / psy_rd=1.05:0.15 / mixed_ref=1 / me_range=32 / chroma_me=1 / trellis=2 / 8x8dct=1 / cqm=0 / deadzone=21,11 / fast_pskip=0 / chroma_qp_offset=-3 / threads=4 / lookahead_threads=1 / sliced_threads=0 / nr=0 / decimate=0 / interlaced=0 / bluray_compat=0 / constrained_intra=0 / bframes=16 / b_pyramid=2 / b_adapt=2 / b_bias=0 / direct=3 / weightb=1 / open_gop=0 / weightp=2 / keyint=250 / keyint_min=25 / scenecut=40 / intra_refresh=0 / rc=2pass / mbtree=0 / bitrate=2300 / ratetol=1.0 / qcomp=0.60 / qpmin=0 / qpmax=69 / qpstep=4 / cplxblur=20.0 / qblur=0.5 / ip_ratio=1.40 / pb_ratio=1.30 / aq=1:1.00
Язык : English
Default : Да
Forced : Нет
Цветовой диапазон : Limited
Основные цвета : BT.601 NTSC
Характеристики трансфера : BT.601
Коэффициенты матрицы : BT.601

Аудио #1
Идентификатор : 2
Формат : AC-3
Формат/Информация : Audio Coding 3
Расширение режима : CM (complete main)
Параметр Endianness формата : Big
Идентификатор кодека : A_AC3
Продолжительность : 1 ч. 41 м.
Вид битрейта : Постоянный
Битрейт : 448 Кбит/сек
Каналы : 6 каналов
Расположение каналов : Front: L C R, Side: L R, LFE
Частота : 48,0 КГц
Частота кадров : 31,250 кадров/сек (1536 spf)
Метод сжатия : С потерями
Задержка видео : 24 мс.
Размер потока : 325 Мбайт (14%)
Язык : Russian
Default : Да
Forced : Нет

Аудио #2
Идентификатор : 3
Формат : AC-3
Формат/Информация : Audio Coding 3
Расширение режима : CM (complete main)
Параметр Endianness формата : Big
Идентификатор кодека : A_AC3
Продолжительность : 1 ч. 41 м.
Вид битрейта : Постоянный
Битрейт : 448 Кбит/сек
Каналы : 6 каналов
Расположение каналов : Front: L C R, Side: L R, LFE
Частота : 48,0 КГц
Частота кадров : 31,250 кадров/сек (1536 spf)
Метод сжатия : С потерями
Задержка видео : 24 мс.
Размер потока : 325 Мбайт (14%)
Язык : Italian
Default : Нет
Forced : Нет

Текст
Идентификатор : 4
Формат : UTF-8
Идентификатор кодека : S_TEXT/UTF8
Идентификатор кодека/Информация : UTF-8 Plain Text
Язык : Russian
Default : Да
Forced : Нет

pb.wtf



Скачать Приключения гангстеров в Нью-Йорке через торрент http://a.radikal.ru/a10/1804/53/b88da4d3f800.jpg Скачать фильм Приключения гангстеров в Нью-Йорке через торрент бесплантно в хорошем качестве Описание: Нью-Йорк, 1959 год. Известный авторитет нанимает трех гангстеров, чтобы избавиться от некоего "Фрэнки". Эти трое наемных убийц не ... 10 10 2
Info! Золотая раздача, скачанное не засчитывается.
Торрент: Зарегистрирован [2018-04-08 08:53] · скачан: 24 раз
Статус: √ проверено
Размер: 2.27 GB
Как cкачать? Как скачать Приключения гангстеров в Нью-Йорке через торрент | UTorrent

28-11-2019 20:33  

Отключить всю рекламу на сайте

08-04-2018 11:34 Приключения гангстеров в Нью-Йорке Скачать торрент  

Топик был перенесен из форума Оформление раздач (Кино, Видео и ТВ) в форум Фильмы 2001-2005


schultzpb.wtf



    Дорогой пользователь! Огромная просьба, поблагодарите релизера, оцените раздачу и оставьте свои комментарий, если Вы скачали Приключения гангстеров в Нью-Йорке через торрент бесплатно! Внесите свою лепту в развитие PiratBit!
    Комментировать посты могут только пользователи прошедшие не сложную регистрацию
    Показать сообщения:    

    Приключения гангстеров в Нью-Йорке через торрент
    Скачать бесплатно Приключения гангстеров в Нью-Йорке
    Приключения гангстеров в Нью-Йорке скачать торрент
    Приключения гангстеров в Нью-Йорке смотреть онлайн
    Cкачать фильм Приключения гангстеров в Нью-Йорке бесплатно
    Приключения гангстеров в Нью-Йорке скачать торрент в хорошем качестве
    Приключения гангстеров в Нью-Йорке смотреть онлайн бесплатно в хорошем качестве


    Вы не можете начинать темы
    Вы не можете отвечать на сообщения
    Вы не можете редактировать свои сообщения
    Вы не можете удалять свои сообщения
    Вы не можете голосовать в опросах
    Вы не можете прикреплять файлы к сообщениям
    Вы можете скачивать файлы