Достать ножи: Стеклянная луковица

MVO

Добыча

Дубляж

Уэнсдэй

1 сезон

Тор

Дубляж

13 клиническая

1 сезон

Жестокая ночь

MVO

Одни из нас

1 сезон

Deluxe

pack

Рекомендуем

30

Пиратка

ВАЖНО

ВАЖНО

Ghostwire

Пиратка

jed

RePack

nioh2

RePack

RDR2

RePack

NEED FOR SPEED™ PAYBACK

RePack

скачать торрент

Кинопоиск HD

Острые козырьки 6 сезон

6 сезон

FAR CRY 6

RePack

скачать торрент

Лицензия

скачать торрент

MVO

1

1 сезон

скачать торрент

1 сезон

скачать торрент

Лицензия

  

Изгой / Cast Away (Роберт Земекис) [2000 г., драма, мелодрама, приключения, BDRip 1080p, HEVC, Дубляж]

Изгой через торрент pb.wtf

Размер: 7.8 GB | Добавлен: 4 года 9 мес. назад | Торрент скачан:196 раз
Смотреть онлайн | Скачать | Поддержите нас   

08-04-2018 11:55 Изгой Скачать торрент  

Изгой / Cast Away
Год выпуска: 2000
Страна: США
Жанр: драма, мелодрама, приключения
Продолжительность: 02:23:46
Перевод: Дублированный, Многоголосый закадровый
Субтитры: Русский, Английские

Режиссер: Роберт Земекис

Бюджет: $90 000 000
Премьера в мире: 7 декабря 2000

rating

В ролях: Том Хэнкс, Хелен Хант, Венди Вортингтон, Ник Сирси, Нэн Мартин, Крис Нот, Лари Уайт, Леонид Ситер, Дэвид Аллен Брукс, Валентина Ананьина

Описание: Герой этого фильма, Чак Ноланд, — сотрудник всемирно известной службы доставки «Федерал Экспресс». Чак — скрупулезный практик и неисправимый педант. Жизнь Ноланда, высокопоставленного инспектора международных отделений «ФедЕкс» расписана по минутам. И этих драгоценных минут катастрофически не хватает ни на личную жизнь, ни на любимую женщину…
Доп. информация: - H.265/HEVC (High Efficiency Video Coding) - это новый стандарт кодирования видео.
- Стандарт H.265/HEVC является логическим продолжением стандарта H.264/AVC (Advanced Video Coding), и характеризуется более эффективными алгоритмами сжатия, а также поддержкой высокого разрешения вплоть до 8K UHD (8192x4320). Первая версия стандарта H.265 была опубликована в начале 2013 года.
- Рипы в фомате HEVC поддерживается не всеми аппаратными проигрывателями.
- Для корректного воспроизведения может потребоваться обновление ПО.
- Владельцам несовместимого железа просьба не беспокоить, есть альтернативные релизы.
Качество: BDRip 1080p
Формат: MKV
Видео кодек: H.265
Аудио кодек: AC3
Видео: 1918x1036, ~6417 Kbps
Аудио#1: AC3, 6 ch, 448 Kbps Дублированный (Позитив-Мультимедиа)
Аудио#2: AC3, 6 ch, 448 Kbps MVO (Киномания)
Аудио#3: AC3, 6 ch, 448 Kbps (Оригинал)
Релиз от: Cthulhu Семпл
Общее
Уникальный идентификатор : 206215227837353413211442647832146086218 (0x9B239BB4D58829288480CDF11436094A)
Полное имя : J:\ФИЛЬМЫ\Cast Away (2000) BDRip 1080p [HEVC].mkv
Формат : Matroska
Версия формата : Version 4 / Version 2
Размер файла : 7,80 Гбайт
Продолжительность : 2 ч. 23 м.
Общий поток : 7763 Кбит/сек
Название фильма : rip_by_Cthulhu
Дата кодирования : UTC 2017-11-07 16:24:06
Программа кодирования : mkvmerge v13.0.0 ('The Juggler') 64bit
Библиотека кодирования : libebml v1.3.4 + libmatroska v1.4.5
Обложка : Yes
Attachments : cover.jpg

Видео
Идентификатор : 1
Формат : HEVC
Формат/Информация : High Efficiency Video Coding
Профиль формата : [email protected]@High
Идентификатор кодека : V_MPEGH/ISO/HEVC
Продолжительность : 2 ч. 23 м.
Битрейт : 6417 Кбит/сек
Ширина : 1918 пикселей
Высота : 1036 пикселей
Соотношение сторон : 1,85:1
Режим частоты кадров : Постоянный
Частота кадров : 23,976 (24000/1001) кадра/сек
Цветовое пространство : YUV
Субдискретизация насыщенности : 4:2:0
Битовая глубина : 8 бит
Бит/(Пиксели*Кадры) : 0.135
Размер потока : 6,44 Гбайт (83%)
Библиотека кодирования : x265 2.5+31-df2de6ea407d:[Windows][GCC 7.1.0][64 bit] 8bit
Настройки программы : cpuid=1050111 / frame-threads=5 / numa-pools=4 / wpp / no-pmode / no-pme / no-psnr / no-ssim / log-level=3 / input-csp=1 / input-res=1918x1036 / interlace=0 / total-frames=0 / level-idc=41 / high-tier=1 / uhd-bd=0 / ref=4 / no-allow-non-conformance / no-repeat-headers / annexb / no-aud / no-hrd / info / hash=0 / no-temporal-layers / open-gop / min-keyint=23 / keyint=230 / bframes=12 / b-adapt=2 / b-pyramid / bframe-bias=0 / rc-lookahead=40 / lookahead-slices=6 / scenecut=40 / no-intra-refresh / ctu=64 / min-cu-size=8 / no-rect / no-amp / max-tu-size=32 / tu-inter-depth=2 / tu-intra-depth=2 / limit-tu=0 / rdoq-level=0 / dynamic-rd=0.00 / no-ssim-rd / signhide / no-tskip / nr-intra=0 / nr-inter=0 / no-constrained-intra / strong-intra-smoothing / max-merge=3 / limit-refs=3 / no-limit-modes / me=2 / subme=7 / merange=57 / temporal-mvp / weightp / weightb / no-analyze-src-pics / deblock=-3:-3 / no-sao / no-sao-non-deblock / rd=3 / no-early-skip / rskip / no-fast-intra / no-tskip-fast / no-cu-lossless / no-b-intra / no-splitrd-skip / rdpenalty=0 / psy-rd=1.00 / psy-rdoq=0.00 / no-rd-refine / analysis-reuse-mode=0 / no-lossless / cbqpoffs=0 / crqpoffs=0 / rc=crf / crf=19.0 / qcomp=0.60 / qpstep=4 / stats-write=0 / stats-read=0 / vbv-maxrate=50000 / vbv-bufsize=35714 / vbv-init=0.9 / crf-max=30.0 / crf-min=0.0 / ipratio=1.40 / pbratio=1.30 / aq-mode=2 / aq-strength=1.00 / cutree / zone-count=0 / no-strict-cbr / qg-size=32 / no-rc-grain / qpmax=69 / qpmin=0 / no-const-vbv / sar=1 / overscan=0 / videoformat=5 / range=0 / colorprim=2 / transfer=2 / colormatrix=2 / chromaloc=0 / display-window=0 / max-cll=0,0 / min-luma=0 / max-luma=255 / log2-max-poc-lsb=8 / vui-timing-info / vui-hrd-info / slices=1 / opt-qp-pps / opt-ref-list-length-pps / no-multi-pass-opt-rps / scenecut-bias=0.05 / no-opt-cu-delta-qp / no-aq-motion / no-hdr / no-hdr-opt / no-dhdr10-opt / analysis-reuse-level=5 / scale-factor=0 / refine-intra=0 / refine-inter=0 / refine-mv=0 / no-limit-sao / ctu-info=0
Язык : English
Default : Да
Forced : Нет

Аудио #1
Идентификатор : 2
Формат : AC-3
Формат/Информация : Audio Coding 3
Идентификатор кодека : A_AC3
Продолжительность : 2 ч. 23 м.
Вид битрейта : Постоянный
Битрейт : 448 Кбит/сек
Каналы : 6 каналов
Расположение каналов : Front: L C R, Side: L R, LFE
Частота : 48,0 КГц
Частота кадров : 31,250 кадров/сек (1536 SPF)
Битовая глубина : 16 бит
Метод сжатия : С потерями
Размер потока : 461 Мбайт (6%)
Заголовок : Дублированный (Позитив-Мультимедиа)
Язык : Russian
ServiceKind/String : Complete Main
Default : Да
Forced : Нет

Аудио #2
Идентификатор : 3
Формат : AC-3
Формат/Информация : Audio Coding 3
Идентификатор кодека : A_AC3
Продолжительность : 2 ч. 23 м.
Вид битрейта : Постоянный
Битрейт : 448 Кбит/сек
Каналы : 6 каналов
Расположение каналов : Front: L C R, Side: L R, LFE
Частота : 48,0 КГц
Частота кадров : 31,250 кадров/сек (1536 SPF)
Битовая глубина : 16 бит
Метод сжатия : С потерями
Размер потока : 461 Мбайт (6%)
Заголовок : MVO (Киномания)
Язык : Russian
ServiceKind/String : Complete Main
Default : Нет
Forced : Нет

Аудио #3
Идентификатор : 4
Формат : AC-3
Формат/Информация : Audio Coding 3
Идентификатор кодека : A_AC3
Продолжительность : 2 ч. 23 м.
Вид битрейта : Постоянный
Битрейт : 448 Кбит/сек
Каналы : 6 каналов
Расположение каналов : Front: L C R, Side: L R, LFE
Частота : 48,0 КГц
Частота кадров : 31,250 кадров/сек (1536 SPF)
Битовая глубина : 16 бит
Метод сжатия : С потерями
Размер потока : 461 Мбайт (6%)
Язык : English
ServiceKind/String : Complete Main
Default : Нет
Forced : Нет

Текст #1
Идентификатор : 5
Формат : UTF-8
Идентификатор кодека : S_TEXT/UTF8
Идентификатор кодека/Информация : UTF-8 Plain Text
Продолжительность : 2 ч. 13 м.
Битрейт : 36 бит/сек
ElementCount : 660
Размер потока : 36,0 Кбайт (0%)
Язык : Russian
Default : Да
Forced : Нет

Текст #2
Идентификатор : 6
Формат : UTF-8
Идентификатор кодека : S_TEXT/UTF8
Идентификатор кодека/Информация : UTF-8 Plain Text
Продолжительность : 2 ч. 14 м.
Битрейт : 27 бит/сек
ElementCount : 880
Размер потока : 27,0 Кбайт (0%)
Язык : English
Default : Нет
Forced : Нет

Меню
00:00:00.000 : :Глава 1
00:01:50.819 : :Глава 2
00:08:37.850 : :Глава 3
00:12:23.325 : :Глава 4
00:17:41.268 : :Глава 5
00:20:43.533 : :Глава 6
00:22:40.233 : :Глава 7
00:25:45.460 : :Глава 8
00:31:11.619 : :Глава 9
00:35:55.319 : :Глава 10
00:39:35.623 : :Глава 11
00:42:23.207 : :Глава 12
00:46:34.208 : :Глава 13
00:51:49.314 : :Глава 14
00:56:29.052 : :Глава 15
01:01:34.357 : :Глава 16
01:04:33.119 : :Глава 17
01:13:11.845 : :Глава 18
01:17:37.736 : :Глава 19
01:19:09.745 : :Глава 20
01:20:42.045 : :Глава 21
01:26:37.901 : :Глава 22
01:34:00.176 : :Глава 23
01:40:37.364 : :Глава 24
01:45:21.398 : :Глава 25
01:47:38.368 : :Глава 26
01:53:30.470 : :Глава 27
01:55:59.953 : :Глава 28
02:04:59.575 : :Глава 29
02:08:27.574 : :Глава 30
02:12:21.725 : :Глава 31
02:16:54.414 : :Глава 32
02:23:45.617 : :Глава 33




Скачать Изгой через торрент https://a.radikal.ru/a02/1804/0d/bd21a1e1bdec.jpg Скачать, смотреть онлайн Изгой бесплантно в хорошем качестве Описание: Герой этого фильма, Чак Ноланд, — сотрудник всемирно известной службы доставки «Федерал Экспресс». Чак — скрупулезный практик и ... 9.9 10 10
Info! Золотая раздача, скачанное не засчитывается.
Торрент: Зарегистрирован [2018-04-08 11:55] · скачан: 196 раз
Статус: √ проверено
Размер: 7.8 GB
Как cкачать? Как скачать Изгой через торрент | UTorrent

% Раздел Тема Автор DL S | L
Фильмы [HD 720p, 1080p] (Хороший звук DUB, MVO) [ 12.57 GB ] Изгой / Cast Away | DUB + MVO + 2хDVO + 3xAVO | 1080p RealOldGamer Скачать
2 | 0
Фильмы [HD 720p, 1080p] (Хороший звук DUB, MVO) [ 21.45 GB ] Изгой / Cast Away | DUB | 1080p msltel Скачать
1 | 0
Фильмы [HD 720p, 1080p] (Хороший звук DUB, MVO) [ 9.07 GB ] Изгой / Cast Away | DUB | 720p msltel Скачать
5 | 0
Фильмы до 2000 г. [ 1.47 GB ] Изгой / Cast Away | | BDRip killermax2013 Скачать
1 | 0
Фильмы 2001-2005 [ 2.18 GB ] Изгой / Cast Away | DUB | HDRip-AVC Phoenix Скачать
1 | 0
Фильмы [HD 720p, 1080p] (Хороший звук DUB, MVO) [ 7.46 GB ] Изгой / Cast Away | Изгой / Cast Away | BDRip .::Sergey::. Скачать
1 | 0
Фильмы (Blu-ray, BD-Remux, HDDVD) [ 15.97 GB ] Изгой / Cast Away | | BDRip Assasinca Скачать
1 | 0

28-11-2019 20:33  


Отключить вcю реклaмy на сайте, в т.ч. и в плеере онлайн просмотра!

08-04-2018 13:25 Изгой Скачать торрент  

Эх,10 бит бы....



    Дорогой пользователь! Огромная просьба, поблагодарите релизера, оцените раздачу и оставьте свои комментарий, если Вы скачали Изгой через торрент бесплатно!!
    Комментировать посты могут только пользователи прошедшие не сложную регистрацию
    Показать сообщения:    


    Изгой через торрент
    Скачать бесплатно Изгой
    Изгой скачать торрент
    Изгой смотреть онлайн
    Cкачать фильм Изгой бесплатно
    Изгой скачать торрент в хорошем качестве
    Изгой смотреть онлайн бесплатно в хорошем качестве
    Вы не можете начинать темы
    Вы не можете отвечать на сообщения
    Вы не можете редактировать свои сообщения
    Вы не можете удалять свои сообщения
    Вы не можете голосовать в опросах
    Вы не можете прикреплять файлы к сообщениям
    Вы можете скачивать файлы
    Изгой / Cast Away [2000 г., драма, мелодрама, приключения, BDRip 1080p, HEVC, Дубляж] смотреть онлайн, скачать торрент picoco.icu