1 сезон

1 сезон

iTunes

1

КиноПоиск HD

Кинопоиск HD

iTunes

13

1 сезон

RePack

30

Ultimate

ВАЖНО

ИГРА 18+

pack

RePack

MK11
pack

Легкие деньги

RePack

jed

RePack

fifa19

RePack

RDR2

RePack

NEED FOR SPEED™ PAYBACK

4 сезон

9 сезон

Бесстыжие 9 сезон

Все сериалы

все сериалы на PB.wtf

RePack

FAR CRY 5
  
Magnet ссылка

Техасская резня бензопилой / The Texas Chainsaw Massacre (Маркус Ниспел) [2003 г., Ужасы, HDRip-AVC, Дубляж] pb.wtf

Техасская резня бензопилой через торрент pb.wtf

Размер: 2.19 GB | Добавлен: 3 года назад | Торрент скачан:4 раза
Скачать  

08-04-2018 19:46 Техасская резня бензопилой Скачать торрент  

Техасская резня бензопилой /
The Texas Chainsaw Massacre
Год выпуска: 2003
Страна: США
Жанр: Ужасы
Продолжительность: 01:38:19
Перевод: Дубляж
Субтитры: отсутствуют

Режиссер: Маркус Ниспел

Премьера в мире: 15 октября 2003

rating

В ролях: Джессика Бил, Джонатан Такер, Эрика Лирсен, Майк Фогель, Эрик Бальфур, Эндрю Бринярски, Р. Ли Эрми, Дэвид Дорфман, Лорен Джерман, Терренс Эванс

Описание: В штате Техас на ферме обычного работника скотобойни Томаса Хьюитта полиция обнаружила 33 изувеченных человеческих тела. Ужасающее открытие шокировало людей, и было названо самым жутким массовым убийством за все время. Газеты писали: «Дом террора национального масштаба. Бойня в Техасе». Пресса окрестила убийцу как «Человек с лицом из кожи».
Местные власти застрелили человека, носившего на лице кожаную маску. Дело было закрыто. Но в последующие годы, множество убийств показало, что полиция нашла не того преступника. Случайно уцелевший свидетель рассказал настоящую историю того, что на самом деле произошло на заброшенном техасском шоссе, когда пятеро подростков оказались в ловушке у безумного человека с бензопилой…

Качество: HDRip-AVC
Формат: MKV
Видео кодек: H.264
Аудио кодек: AC3
Видео: AVC/H.264, 1024х576 (16:9), ~2737, 0.194 bit/pixel
Аудио#1: AC3, 6 ch, 448 kbps - Дубляж
Релиз от: winchester00100010
Общее
Уникальный идентификатор : 192654945428490340742653362973887843486 (0x90EFFE2A561CC241A8F84F98E2524C9E)
Полное имя : D:\Торрент файлы раздач вместе с фильмами\The.Texas.Chainsaw.Massacre.2003.HDRip-AVC.mkv
Формат : Matroska
Версия формата : Version 2
Размер файла : 2,19 Гбайт
Продолжительность : 1 ч. 38 м.
Общий поток : 3181 Кбит/сек
Дата кодирования : UTC 2018-04-08 19:21:26
Программа кодирования : mkvmerge v5.8.0 ('No Sleep / Pillow') built on Sep 2 2012 15:37:04
Библиотека кодирования : libebml v1.2.3 + libmatroska v1.3.0

Видео
Идентификатор : 1
Формат : AVC
Формат/Информация : Advanced Video Codec
Профиль формата : High@L4.1
Настройки формата : CABAC / 11 Ref Frames
Параметр CABAC формата : Да
Параметр RefFrames формата : 11 кадров
Идентификатор кодека : V_MPEG4/ISO/AVC
Продолжительность : 1 ч. 38 м.
Битрейт : 2737 Кбит/сек
Ширина : 1024 пикселя
Высота : 576 пикселей
Соотношение сторон : 16:9
Режим частоты кадров : Постоянный
Частота кадров : 23,976 (24000/1001) кадра/сек
Цветовое пространство : YUV
Субдискретизация насыщенности : 4:2:0
Битовая глубина : 8 бит
Тип развёртки : Прогрессивная
Бит/(Пиксели*Кадры) : 0.194
Размер потока : 1,83 Гбайт (84%)
Библиотека кодирования : x264 core 155 r2901 7d0ff22
Настройки программы : cabac=1 / ref=11 / deblock=1:-1:-1 / analyse=0x3:0x113 / me=umh / subme=9 / psy=1 / psy_rd=1.00:0.00 / mixed_ref=1 / me_range=24 / chroma_me=1 / trellis=2 / 8x8dct=1 / cqm=0 / deadzone=21,11 / fast_pskip=0 / chroma_qp_offset=-2 / threads=12 / lookahead_threads=1 / sliced_threads=0 / nr=0 / decimate=0 / interlaced=0 / bluray_compat=0 / constrained_intra=0 / bframes=6 / b_pyramid=2 / b_adapt=2 / b_bias=0 / direct=3 / weightb=1 / open_gop=0 / weightp=2 / keyint=240 / keyint_min=23 / scenecut=40 / intra_refresh=0 / rc_lookahead=40 / rc=2pass / mbtree=0 / bitrate=2737 / ratetol=1.0 / qcomp=0.60 / qpmin=0 / qpmax=69 / qpstep=4 / cplxblur=20.0 / qblur=0.5 / vbv_maxrate=14000 / vbv_bufsize=14000 / nal_hrd=none / filler=0 / ip_ratio=1.40 / pb_ratio=1.30 / aq=1:1.00
Default : Да
Forced : Нет
Statistics Tags Issue : mkvmerge v21.0.0 ('Tardigrades Will Inherit The Earth') 64-bit 2018-04-08 19:05:16 / mkvmerge v5.8.0 ('No Sleep / Pillow') built on Sep 2 2012 15:37:04 2018-04-08 19:21:26
FromStats_BitRate : 2732448
FromStats_Duration : 01:38:19.185000000
FromStats_FrameCount : 141439
FromStats_StreamSize : 2014902666

Аудио
Идентификатор : 2
Формат : AC-3
Формат/Информация : Audio Coding 3
Идентификатор кодека : A_AC3
Продолжительность : 1 ч. 38 м.
Вид битрейта : Постоянный
Битрейт : 448 Кбит/сек
Каналы : 6 каналов
Расположение каналов : Front: L C R, Side: L R, LFE
Частота : 48,0 КГц
Частота кадров : 31,250 кадров/сек (1536 SPF)
Битовая глубина : 16 бит
Метод сжатия : С потерями
Размер потока : 315 Мбайт (14%)
ServiceKind/String : Complete Main
Default : Да
Forced : Нет

pb.wtf



Скачать Техасская резня бензопилой через торрент https://d.radikal.ru/d10/1804/f9/25462f2a1b49.jpg Скачать фильм Техасская резня бензопилой через торрент бесплантно в хорошем качестве Описание: В штате Техас на ферме обычного работника скотобойни Томаса Хьюитта полиция обнаружила 33 изувеченных человеческих тела. ... 10 10 3
Info! Золотая раздача, скачанное не засчитывается.
Торрент: Зарегистрирован [2018-04-08 19:46] · скачан: 4 раз
Статус: √ проверено
Размер: 2.19 GB
Как cкачать? Как скачать Техасская резня бензопилой через торрент | UTorrent

% Раздел Тема Автор DL S | L
Фильмы [HD 720p, 1080p] (Хороший звук DUB, MVO) [ 6.59 GB ] Техасская резня бензопилой / The Texas Chainsaw Massacre [2003 BDRip 720p ] DUB DVO AVO [UK Transfer] winchester00100010 Скачать
3 | 0
Фильмы [HD 720p, 1080p] (Хороший звук DUB, MVO) [ 5.75 GB ] Техасская резня бензопилой: Начало / The Texas Chainsaw Massacre: The Beginning [2006 BDRip 720p ] [Theatrical Cut] winchester00100010 Скачать
2 | 0
Фильмы [HD 720p, 1080p] (Хороший звук DUB, MVO) [ 3.85 GB ] Техасская резня бензопилой 4: Новое поколение / Texas Chainsaw Massacre: The Next Generation [1994 BDRip 720p ] [Theatrical Cut] winchester00100010 Скачать
1 | 0
Фильмы [HD 720p, 1080p] (Хороший звук DUB, MVO) [ 3.33 GB ] Техасская резня бензопилой 3: Кожаное лицо / Leatherface: Texas Chainsaw Massacre III [1990 BDRip 720p ] [Unrated] winchester00100010 Скачать
1 | 0
Фильмы 2006-2008 [ 1.8 GB ] Техасская резня бензопилой / The Texas Chainsaw Massacre [2003 BDRip ] winchester00100010 Скачать
1 | 0
Фильмы [HD 720p, 1080p] (Хороший звук DUB, MVO) [ 13.1 GB ] Техасская резня бензопилой / The Texas Chainsaw Massacre [2003 BDRip 1080p by msltel] DUB 2 x DVO 2 x AVO msltel Скачать
1 | 0
Фильмы [HD 720p, 1080p] (Хороший звук DUB, MVO) [ 5.57 GB ] Техасская резня бензопилой / The Texas Chainsaw Massacre [2003 BDRip 720p by msltel] DUB 2 x DVO 2 x AVO msltel Скачать
1 | 0

28-11-2019 20:33  

Отключить всю рекламу на сайте

08-04-2018 20:41 Техасская резня бензопилой Скачать торрент  

Всем приятного просмотра)pb.wtf



    Дорогой пользователь! Огромная просьба, поблагодарите релизера, оцените раздачу и оставьте свои комментарий, если Вы скачали Техасская резня бензопилой через торрент бесплатно! Внесите свою лепту в развитие PiratBit!
    Комментировать посты могут только пользователи прошедшие не сложную регистрацию
    Показать сообщения:    

    Техасская резня бензопилой через торрент
    Скачать бесплатно Техасская резня бензопилой
    Техасская резня бензопилой скачать торрент
    Техасская резня бензопилой смотреть онлайн
    Cкачать фильм Техасская резня бензопилой бесплатно
    Техасская резня бензопилой скачать торрент в хорошем качестве
    Техасская резня бензопилой смотреть онлайн бесплатно в хорошем качестве


    Вы не можете начинать темы
    Вы не можете отвечать на сообщения
    Вы не можете редактировать свои сообщения
    Вы не можете удалять свои сообщения
    Вы не можете голосовать в опросах
    Вы не можете прикреплять файлы к сообщениям
    Вы можете скачивать файлы