Мега распродажа FORZA HORIZON 4 ULTIMATE+ВСЕ DLC+ОНЛАЙН всего за 499р. 349 руб. (супер цена). Внимание количество ограничено!!!

Лицензия

30

iTunes

мы

iTunes

1

1 сезон

Чернобыль

1 сезон

Ральф против интернета

MVO

Покемон. Детектив Пикачу

8 сезон

Игра престолов

iTunes

1+1

ИГРА 18+

pack

ВАЖНО

!!Акция!!

Alien_RageХит недели

RePack

Resident Evil 21
pack

RePack

Metro:Exodus

!!Акция!!

Alien_Rage

RePack

fifa19

RePack

Assassins Creed: Odyssey

RePack

NEED FOR SPEED™ PAYBACK

3 сезон

9 сезон

Бесстыжие 9 сезон

Все сериалы

все сериалы на PB.wtf

RePack

FAR CRY 5
Ребята, катастрофически не хватает 2730р. для оплаты серверов за МАЙ (всвязи с блокировками трафик упал в 3 раза), 1-2р., выручайте.
  

Пятница 13-е / Friday the 13th (Маркус Ниспел) [2009 г., Ужасы, BDRip-AVC, Дубляж BD CEE + Двухголосый] [Extended Cut] pb.wtf

Пятница 13-е через торрент pb.wtf

Размер: 1.75 GB | Добавлен: 1 год 2 мес. назад | Торрент скачан:6 раз
Скачать  

08-04-2018 23:02 Пятница 13-е Скачать торрент  

Пятница 13-е /
Friday the 13th
Год выпуска: 2009
Страна: США
Жанр: Ужасы
Продолжительность: 01:45:30
Перевод: Дубляж BD CEE + вставки Двухголосого на расширенные сцены
Субтитры: отсутствуют

Режиссер: Маркус Ниспел

Премьера в мире: 9 февраля 2009

rating

В ролях: Джаред Падалецки, Даниэль Панабэйкер, Аманда Риджетти, Трэвис Ван Винкл, Аарон Йу, Дерек Мирс и др.

Описание: Молодые друзья Уитни, Майк, Ричи, Аманда и Уэйд заблудились в лесах около заброшенного лагеря «Хрустальное озеро». Когда их любопытство взяло верх, они решили посетить то место, где когда-то обитал убийца-психопат. Тем временем Трент приглашает друзей: Джену, Брии, Чеви, Челси, Лоуренса и Нолана в его хижину, расположенную у озера, на уикэнд, полный секса, выпивки и наркотиков.
Однако их забавный уикэнд, по-видимому, скоро перерастет в кошмар после того, как одинокий путешественник Клэй начинает поиски своей пропавшей сестры Уитни, и молодые тинейджеры вскоре оказываются лицом к лицу со злом, заново рожденным, невообразимым, и усовершенствованным, его имя Джейсон Вурхиз!

Качество: BDRip-AVC
Формат: MKV
Видео кодек: H.264
Аудио кодек: AC3
Видео: AVC/H.264, 1080х450 (2,40:1), ~2184 kbps, 0.187 bit/pixel
Аудио#1: AC3, 2 ch, 192 kbps - Дубляж (BD CEE) + вставки Двухголосого на расширенные сцены
Релиз от: winchester00100010
Общее
Уникальный идентификатор : 225312024904627259708215785802370793287 (0xA981847EC66C9A839F5B886101523F47)
Полное имя : E:\Торрент файлы раздач вместе с фильмами\Friday.the.13th.2009.Extended.Cut.BDRip-AVC.mkv
Формат : Matroska
Версия формата : Version 2
Размер файла : 1,75 Гбайт
Продолжительность : 1 ч. 45 м.
Общий поток : 2377 Кбит/сек
Название фильма : Friday the 13th (2009) Extended Cut
Дата кодирования : UTC 2018-04-08 22:37:57
Программа кодирования : mkvmerge v5.8.0 ('No Sleep / Pillow') built on Sep 2 2012 15:37:04
Библиотека кодирования : libebml v1.2.3 + libmatroska v1.3.0

Видео
Идентификатор : 1
Формат : AVC
Формат/Информация : Advanced Video Codec
Профиль формата : High@L4.1
Настройки формата : CABAC / 12 Ref Frames
Параметр CABAC формата : Да
Параметр RefFrames формата : 12 кадров
Идентификатор кодека : V_MPEG4/ISO/AVC
Продолжительность : 1 ч. 45 м.
Битрейт : 2184 Кбит/сек
Ширина : 1080 пикселей
Высота : 450 пикселей
Соотношение сторон : 2,40:1
Режим частоты кадров : Постоянный
Частота кадров : 23,976 (24000/1001) кадра/сек
Цветовое пространство : YUV
Субдискретизация насыщенности : 4:2:0
Битовая глубина : 8 бит
Тип развёртки : Прогрессивная
Бит/(Пиксели*Кадры) : 0.187
Размер потока : 1,58 Гбайт (90%)
Заголовок : Friday.the.13th.2009.Extended.Cut.BDRip-AVC
Библиотека кодирования : x264 core 142 r2479 dd79a61
Настройки программы : cabac=1 / ref=12 / deblock=1:-2:-2 / analyse=0x3:0x133 / me=umh / subme=11 / psy=1 / psy_rd=1.00:0.05 / mixed_ref=1 / me_range=32 / chroma_me=1 / trellis=2 / 8x8dct=1 / cqm=0 / deadzone=21,11 / fast_pskip=0 / chroma_qp_offset=-3 / threads=6 / lookahead_threads=1 / sliced_threads=0 / nr=0 / decimate=1 / interlaced=0 / bluray_compat=0 / constrained_intra=0 / bframes=16 / b_pyramid=2 / b_adapt=2 / b_bias=0 / direct=3 / weightb=1 / open_gop=0 / weightp=2 / keyint=240 / keyint_min=24 / scenecut=40 / intra_refresh=0 / rc_lookahead=60 / rc=2pass / mbtree=0 / bitrate=2184 / ratetol=1.0 / qcomp=0.60 / qpmin=0 / qpmax=69 / qpstep=4 / cplxblur=20.0 / qblur=0.5 / vbv_maxrate=62500 / vbv_bufsize=78125 / nal_hrd=none / filler=0 / ip_ratio=1.40 / pb_ratio=1.30 / aq=1:1.00
Язык : English
Default : Да
Forced : Нет
Цветовой диапазон : Limited
Основные цвета : BT.709
Характеристики трансфера : BT.709
Коэффициенты матрицы : BT.709

Аудио
Идентификатор : 2
Формат : AC-3
Формат/Информация : Audio Coding 3
Идентификатор кодека : A_AC3
Продолжительность : 1 ч. 45 м.
Вид битрейта : Постоянный
Битрейт : 192 Кбит/сек
Каналы : 2 канала
Расположение каналов : Front: L R
Частота : 48,0 КГц
Частота кадров : 31,250 кадров/сек (1536 SPF)
Битовая глубина : 16 бит
Метод сжатия : С потерями
Задержка видео : -5 мс.
Размер потока : 145 Мбайт (8%)
Заголовок : Дубляж (BD CEE )
Язык : Russian
ServiceKind/String : Complete Main
Default : Да
Forced : Да

pb.wtf



Скачать Пятница 13-е через торрент https://c.radikal.ru/c32/1804/30/1ba31db1443b.jpg Скачать фильм Пятница 13-е через торрент бесплантно в хорошем качестве Описание: Молодые друзья Уитни, Майк, Ричи, Аманда и Уэйд заблудились в лесах около заброшенного лагеря «Хрустальное озеро». Когда их ... 10 10 3
Info! Золотая раздача, скачанное не засчитывается.
Торрент: Зарегистрирован [2018-04-09 20:36] · скачан: 6 раз
Статус: √ проверено
Размер: 1.75 GB
Как cкачать? Как скачать Пятница 13-е через торрент | qTorrent

% Раздел Тема Автор DL S | L
3D Фильмы [ 15.41 GB ] Пятница 13-е – Часть 3 в 3Д / Friday the 13th Part III 3D [1982 BDRip 1080p] OverUnder / Вертикальная стереопара serega768 Скачать
1 | 1
Фильмы [HD 720p, 1080p] (Хороший звук DUB, MVO) [ 9.07 GB ] Пятница 13-е / Friday the 13th [2009 ремейк слэшер BDRip 1080p] DUB DVO 2xAVO VO Леонид Ильич Скачать
2 | 0
Фильмы [HD 720p, 1080p] (Хороший звук DUB, MVO) [ 8.81 GB ] Пятница 13-е – Часть 8: Джейсон штурмует Манхэттен / Friday the 13th Part VIII: Jason Takes Manhattan [1989 BDRip 1080p] 2xMVO 2xAVO 2xVO Леонид Ильич Скачать
2 | 0
Фильмы [HD 720p, 1080p] (Хороший звук DUB, MVO) [ 8.02 GB ] Пятница 13-е – Часть 7: Новая кровь / Friday the 13th Part VII: The New Blood [1988 BDRip 1080p] 2xMVO 4xAVO VO Леонид Ильич Скачать
2 | 0
Фильмы [HD 720p, 1080p] (Хороший звук DUB, MVO) [ 8.01 GB ] Пятница 13-е. Часть 4: Последняя глава / Friday the 13th: The Final Chapter [1984 BDRip 1080p] MVO 5xAVO VO Леонид Ильич Скачать
2 | 0
Фильмы [HD 720p, 1080p] (Хороший звук DUB, MVO) [ 7.53 GB ] Пятница 13-е – Часть 6: Джейсон жив! / Jason Lives: Friday the 13th Part VI [1986 BDRip 1080p] 2xMVO 2xAVO VO Леонид Ильич Скачать
2 | 0
Фильмы [HD 720p, 1080p] (Хороший звук DUB, MVO) [ 7.72 GB ] Пятница 13-е – Часть 5: Новое начало / Friday the 13th: A New Beginning [1985 BDRip 1080p] MVO DVO AVO Леонид Ильич Скачать
2 | 0


Последний раз редактировалось: winchester00100010 (2018-04-09 20:36), всего редактировалось 1 раз


>> Регистрируемся здесь <<






Отзывы и комментарии о схеме читаем и пишем здесь: ---> Отзывы и комментарии о схеме

Новые благодарочки в телеграм довольных пользователей:
скриншот   скриншот   скриншот   скриншот   скриншот

08-04-2018 23:03 Пятница 13-е Скачать торрент  

Всем приятного просмотра)pb.wtf



08-04-2018 23:54 Пятница 13-е Скачать торрент  

Ха, фига! Джаред тут. Надо заценить. pb.wtf



09-04-2018 16:01 Пятница 13-е Скачать торрент  

Клерик писал(а):

Ха, фига! Джаред тут. Надо заценить.

Дааааа, наш кумир Джаред Падалеки тута))pb.wtf



    Дорогой пользователь! Огромная просьба, поблагодарите релизера, оцените раздачу и оставьте свои комментарий, если Вы скачали Пятница 13-е через торрент бесплатно! Внесите свою лепту в развитие PiratBit!
    Комментировать посты могут только пользователи прошедшие не сложную регистрацию
    Показать сообщения:    

    Пятница 13-е через торрент
    Скачать бесплатно Пятница 13-е
    Пятница 13-е скачать торрент
    Пятница 13-е смотреть онлайн
    Cкачать фильм Пятница 13-е бесплатно
    Пятница 13-е скачать торрент в хорошем качестве
    Пятница 13-е смотреть онлайн бесплатно в хорошем качестве


    Вы не можете начинать темы
    Вы не можете отвечать на сообщения
    Вы не можете редактировать свои сообщения
    Вы не можете удалять свои сообщения
    Вы не можете голосовать в опросах
    Вы не можете прикреплять файлы к сообщениям
    Вы можете скачивать файлы