Ссылка на приватное зеркало всего за 1$. Внимание количество ограничено!!!

OK

1+1

iTunes

мы

OK

1

WEB-DLRip

Джокер

Пифагор

Ведьмак / The Witcher сериал

iTunes

ПШазам

ОК

Оно 2

iTunes

30
pack

Вам бонус

ВАЖНО

!!Акция!!

Alien_RageХит недели

RePack

Resident Evil 21

ИГРА 18+

pack

RePack

jed

RePack

fifa19

RePack

Assassins Creed: Odyssey

RePack

NEED FOR SPEED™ PAYBACK

4 сезон

9 сезон

Бесстыжие 9 сезон

Все сериалы

все сериалы на PB.wtf

RePack

FAR CRY 5
  

Страна призраков / Ghostland (Паскаль Ложье) [2018, ужасы, WEB-DL 1080p] DUB [iTunes] pb.wtf

Страна призраков через торрент pb.wtf

Раздают: 1 [ 1 KB/s ]
Размер: 3.13 GB | Добавлен: 1 год 9 мес. назад | Торрент скачан:791 раз
Скачать  

09-04-2018 04:47 Страна призраков Скачать торрент  

Страна призраков / GhostlandГод выпуска: 2018
Страна: Франция, Канада
Жанр: ужасы
Продолжительность: 01:30:58
Перевод: Дубляж | iTunes
Субтитры: отсутствуют

Режиссер: Паскаль Ложье

rating

В ролях:

Кристал Рид, Анастасия Филлипс, Эмилия Джонс, Тэйлор Хиксон, Милен Фармер, Роб Арчер, Анджела Эшер, Эрик Атхавале, Тони Брэга, Паоло Брайант

Описание:

Бэт возвращается в родные места, где много лет назад с её семьёй произошла страшная трагедия. В старом особняке её ждут мать и сестра, помешанная на призраках, чья одержимость злыми духами - не что иное, как отголосок ужасного инцидента, превратившего жизнь в параноидальный кошмар. В доме начинают происходить странные события, объяснить которые Бэт не в силах...

Качество: WEB-DL 1080p
Формат: MKV

Видео: 1920x804 at 24.000 fps, MPEG-4 AVC, ~4447 kbps avg
Аудио: Russian: 48 kHz, AC3, 3/2 (L,C,R,l,r) + LFE ch, ~384.00 kbps avg
скриншот   скриншот   скриншот   скриншот  

General
Unique ID : 172620457580158605878080416790574920269 (0x81DD7DA6D2538663A74912379349F24D)
Complete name : Ghostland.2018.1080p.WEB-DL.Rus.mkv
Format : Matroska
Format version : Version 4 / Version 2
File size : 3.13 GiB
Duration : 1 h 30 min
Overall bit rate : 4 929 kb/s
Movie name : STRANA_PRIZRAKOV_WEB_DL_1080p-BLUEBIRD
Encoded date : UTC 2018-04-08 18:19:05
Writing application : mkvmerge v6.9.1 ('Blue Panther') 32bit built on Apr 18 2014 18:15:44
Writing library : libebml v1.3.0 + libmatroska v1.4.1

Video
ID : 1
Format : AVC
Format/Info : Advanced Video Codec
Format profile : High@L4
Format settings : CABAC / 5 Ref Frames
Format settings, CABAC : Yes
Format settings, RefFrames : 5 frames
Codec ID : V_MPEG4/ISO/AVC
Duration : 1 h 30 min
Bit rate : 4 447 kb/s
Width : 1 920 pixels
Height : 804 pixels
Display aspect ratio : 2.40:1
Frame rate mode : Constant
Frame rate : 24.000 FPS
Color space : YUV
Chroma subsampling : 4:2:0
Bit depth : 8 bits
Scan type : Progressive
Bits/(Pixel*Frame) : 0.120
Stream size : 2.83 GiB (90%)
Title : STRANA_PRIZRAKOV_WEB_DL_1080p-BLUEBIRD
Language : English
Default : Yes
Forced : No
Color range : Limited
Color primaries : BT.709
Transfer characteristics : BT.709
Matrix coefficients : BT.709

Audio
ID : 2
Format : AC-3
Format/Info : Audio Coding 3
Codec ID : A_AC3
Duration : 1 h 30 min
Bit rate mode : Constant
Bit rate : 384 kb/s
Channel(s) : 6 channels
Channel positions : Front: L C R, Side: L R, LFE
Sampling rate : 48.0 kHz
Frame rate : 31.250 FPS (1536 SPF)
Bit depth : 16 bits
Compression mode : Lossy
Stream size : 250 MiB (8%)
Title : [DUB] DD 5.1 @ 384 kbps (iTunes)
Language : Russian
Service kind : Complete Main
Default : Yes
Forced : No

Menu
00:00:00.000 : en:Глава 1
00:06:21.375 : en:Глава 2
00:11:59.583 : en:Глава 3
00:18:30.541 : en:Глава 4
00:24:06.249 : en:Глава 5
00:29:33.790 : en:Глава 6
00:36:07.706 : en:Глава 7
00:43:21.789 : en:Глава 8
00:50:57.205 : en:Глава 9
00:56:45.163 : en:Глава 10
01:03:33.746 : en:Глава 11
01:10:18.537 : en:Глава 12
01:15:41.703 : en:Глава 13

pb.wtf



Скачать Страна призраков через торрент http://img12.lostpic.net/2018/04/09/f7899bfd6aab12554b1acce054d75c1d.png Скачать фильм Страна призраков через торрент бесплантно в хорошем качестве Описание: Бэт возвращается в родные места, где много лет назад с её семьёй произошла страшная трагедия. В старом особняке её ждут мать и ... 9.4 10 23
Торрент: Зарегистрирован [2018-04-09 04:47] · скачан: 791 раз
Статус: √ проверено
Размер: 3.13 GB
Как cкачать? Как скачать Страна призраков через торрент | qTorrent

% Раздел Тема Автор DL S | L
Фильмы 2018 [DVDrip, WEB-DLRip, HDrip] (DUB, MVO) [ 1.46 GB ] Страна призраков / Ghostland [2018 BDRip] - [] Twi7ter Скачать
2 | 0
Фильмы 2018 [DVDrip, WEB-DLRip, HDrip] (DUB, MVO) [ 1.5 GB ] Страна призраков / Ghostland [2018 BDRip-AVC] DUB [] bober100 Скачать
2 | 0
Фильмы (WEB-DL 720p, 1080p) [ 2.83 GB ] Страна призраков / Ghostland [2018 WEB-DL 720p] bober100 Скачать
3 | 0

28-11-2019 20:33  

Отключить всю рекламу на сайте

09-04-2018 11:33 Страна призраков Скачать торрент  

Смотрел в кинотеатре. Картинка классная, но сам фильм не понравился. Много "тупости". Имхо.pb.wtf



09-04-2018 13:46 Страна призраков Скачать торрент  

рейтинг высокий.забираем конечно.спасибо.pb.wtf



09-04-2018 19:56 Страна призраков Скачать торрент  

фильм не простой, но удивил, против оценки, не имею ничего против, 6.5 железобетонно
"пресняк" надоел,хоть что-то, "солёненькое" подвезли, без этих принципов либерализма =)pb.wtf



10-04-2018 07:43 Страна призраков Скачать торрент  

Спасибо
Я за любой кипиш, кроме голодовкиpb.wtf



10-04-2018 19:20 Страна призраков Скачать торрент  

Такое отменное дерьмо я давно не видывал,зря потраченное время... фильм будет интересен максимум подросткам.pb.wtf



    Дорогой пользователь! Огромная просьба, поблагодарите релизера, оцените раздачу и оставьте свои комментарий, если Вы скачали Страна призраков через торрент бесплатно! Внесите свою лепту в развитие PiratBit!
    Комментировать посты могут только пользователи прошедшие не сложную регистрацию
    Показать сообщения:    

    Страна призраков через торрент
    Скачать бесплатно Страна призраков
    Страна призраков скачать торрент
    Страна призраков смотреть онлайн
    Cкачать фильм Страна призраков бесплатно
    Страна призраков скачать торрент в хорошем качестве
    Страна призраков смотреть онлайн бесплатно в хорошем качестве


    Вы не можете начинать темы
    Вы не можете отвечать на сообщения
    Вы не можете редактировать свои сообщения
    Вы не можете удалять свои сообщения
    Вы не можете голосовать в опросах
    Вы не можете прикреплять файлы к сообщениям
    Вы можете скачивать файлы