Достать ножи: Стеклянная луковица

MVO

Добыча

Дубляж

Уэнсдэй

1 сезон

Тор

Дубляж

13 клиническая

1 сезон

Жестокая ночь

MVO

Одни из нас

1 сезон

Deluxe

pack

Рекомендуем

30

Пиратка

ВАЖНО

ВАЖНО

Ghostwire

Пиратка

jed

RePack

nioh2

RePack

RDR2

RePack

NEED FOR SPEED™ PAYBACK

RePack

скачать торрент

Кинопоиск HD

Острые козырьки 6 сезон

6 сезон

FAR CRY 6

RePack

скачать торрент

Лицензия

скачать торрент

MVO

1

1 сезон

скачать торрент

1 сезон

скачать торрент

Лицензия

  

История призрака / A Ghost Story (Дэвид Лоури) [2017, Драма, мелодрама, фэнтези, BDRip 1080p] Дубляж [iTunes]

История призрака через торрент pb.wtf

Размер: 8.98 GB | Добавлен: 4 года 9 мес. назад | Торрент скачан:688 раз
Смотреть онлайн | Скачать | Поддержите нас   

09-04-2018 04:57 История призрака Скачать торрент  

История призрака / A Ghost StoryГод выпуска: 2017
Страна: США
Жанр: Драма, мелодрама, фэнтези
Продолжительность: 01:32:07
Перевод: Дублированный | iTunes
Субтитры: русские, английские

Режиссер: Дэвид Лоури

rating

В ролях:

Кейси Аффлек, Руни Мара, МакКольм Сепас мл., Кеннейша Томпсон, Гроувер Колсон, Лизбет Карденас, Барлоу Джейкобс, Ричард Крауз, Дэггер Салазар, Соня Асеведо

Описание:

Молодой музыкант попадает в автомобильную катастрофу. Вместо того, чтобы отправиться в иной мир, он решает остаться в родном доме. Проживая за разом историю дома, он встречается со всеми его владельцами.

Качество: BDRip 1080p
Формат: MKV

Видео: MPEG-4 AVC, 1920x1080, 12.1 Mbit/s, 23.976 fps
Аудио#1: 48 kHz, AC3, 5.1, 384 Kbps | iTunes | RUS |
Аудио#2: 48 kHz, DTS, 5.1, 1510 Kbps | Оригинал | ENG |
скриншот   скриншот   скриншот   скриншот   скриншот  

General
Unique ID : 11632013601559776594577178655356349606 (0x8C03E8C77E35D9795586EB7867BECA6)
Complete name : C:Video111A.Ghost.Story.2017.BDRip.1080p.ExKinoRay.mkv
Format : Matroska
Format version : Version 4 / Version 2
File size : 8.98 GiB
Duration : 1 h 32 min
Overall bit rate : 13.9 Mb/s
Movie name : A Ghost Story 2017 from ExKinoRay
Encoded date : UTC 2018-04-08 22:28:55
Writing application : mkvmerge v22.0.0 ('At The End Of The World') 64-bit
Writing library : libebml v1.3.5 + libmatroska v1.4.8

Video
ID : 1
Format : AVC
Format/Info : Advanced Video Codec
Format profile : [email protected]
Format settings : CABAC / 4 Ref Frames
Format settings, CABAC : Yes
Format settings, ReFrames : 4 frames
Codec ID : V_MPEG4/ISO/AVC
Duration : 1 h 32 min
Bit rate : 12.1 Mb/s
Width : 1 920 pixels
Height : 1 080 pixels
Display aspect ratio : 16:9
Frame rate mode : Constant
Frame rate : 23.976 (24000/1001) FPS
Color space : YUV
Chroma subsampling : 4:2:0
Bit depth : 8 bits
Scan type : Progressive
Bits/(Pixel*Frame) : 0.242
Stream size : 7.76 GiB (86%)
Writing library : x264 core 148 r2762+56 6284cf3 t_mod_Custom [[email protected] X86_64]
Encoding settings : cabac=1 / ref=4 / deblock=1:-3:-3 / analyse=0x3:0x133 / me=umh / subme=10 / psy=1 / fade_compensate=0.00 / psy_rd=1.00:0.05 / mixed_ref=1 / me_range=32 / chroma_me=1 / trellis=2 / 8x8dct=1 / cqm=0 / deadzone=21,11 / fast_pskip=0 / chroma_qp_offset=-3 / threads=6 / lookahead_threads=1 / sliced_threads=0 / nr=0 / decimate=0 / interlaced=0 / bluray_compat=0 / constrained_intra=0 / fgo=0 / bframes=10 / b_pyramid=2 / b_adapt=2 / b_bias=0 / direct=3 / weightb=1 / open_gop=0 / weightp=2 / keyint=240 / keyint_min=23 / scenecut=40 / intra_refresh=0 / rc_lookahead=60 / rc=crf / mbtree=1 / crf=18.5000 / qcomp=0.70 / qpmin=0:0:0 / qpmax=69:69:69 / qpstep=4 / vbv_maxrate=62500 / vbv_bufsize=78125 / crf_max=0.0 / nal_hrd=none / filler=0 / ip_ratio=1.40 / aq=1:0.90 / aq-sensitivity=10.00 / aq-factor=1.00:1.00:1.00 / aq2=0 / aq3=0
Language : English
Default : Yes
Forced : No

Audio #1
ID : 2
Format : AC-3
Format/Info : Audio Coding 3
Codec ID : A_AC3
Duration : 1 h 32 min
Bit rate mode : Constant
Bit rate : 384 kb/s
Channel(s) : 6 channels
Channel positions : Front: L C R, Side: L R, LFE
Sampling rate : 48.0 kHz
Frame rate : 31.250 FPS (1536 SPF)
Bit depth : 16 bits
Compression mode : Lossy
Stream size : 253 MiB (3%)
Title : iTunes
Language : Russian
Service kind : Complete Main
Default : Yes
Forced : Yes

Audio #2
ID : 3
Format : DTS
Format/Info : Digital Theater Systems
Codec ID : A_DTS
Duration : 1 h 32 min
Bit rate mode : Constant
Bit rate : 1 509 kb/s
Channel(s) : 6 channels
Channel positions : Front: L C R, Side: L R, LFE
Sampling rate : 48.0 kHz
Frame rate : 93.750 FPS (512 SPF)
Bit depth : 24 bits
Compression mode : Lossy
Stream size : 994 MiB (11%)
Title : Original
Language : English
Default : No
Forced : No

Text #1
ID : 4
Format : UTF-8
Codec ID : S_TEXT/UTF8
Codec ID/Info : UTF-8 Plain Text
Duration : 1 h 27 min
Bit rate : 21 b/s
Count of elements : 332
Stream size : 13.8 KiB (0%)
Title : Full
Language : Russian
Default : No
Forced : No

Text #2
ID : 5
Format : UTF-8
Codec ID : S_TEXT/UTF8
Codec ID/Info : UTF-8 Plain Text
Duration : 1 h 24 min
Bit rate : 16 b/s
Count of elements : 273
Stream size : 10.1 KiB (0%)
Title : Full
Language : English
Default : No
Forced : No

Menu #1
00:00:00.000 : en:00:00:00.000
00:05:01.927 : en:00:05:01.927
00:10:08.733 : en:00:10:08.733
00:12:32.794 : en:00:12:32.794
00:16:22.398 : en:00:16:22.398
00:19:19.617 : en:00:19:19.617
00:24:53.325 : en:00:24:53.325
00:30:23.989 : en:00:30:23.989
00:34:51.673 : en:00:34:51.673
00:39:08.680 : en:00:39:08.680
00:43:25.812 : en:00:43:25.812
00:48:20.564 : en:00:48:20.564
00:54:38.692 : en:00:54:38.692
00:59:39.785 : en:00:59:39.785
01:03:49.117 : en:01:03:49.117
01:09:59.570 : en:01:09:59.570
01:14:04.857 : en:01:14:04.857
01:20:20.274 : en:01:20:20.274
01:24:30.732 : en:01:24:30.732
01:30:22.667 : en:01:30:22.667
01:35:23.760 : en:01:35:23.760
01:38:46.546 : en:01:38:46.546
01:43:07.723 : en:01:43:07.723
01:49:27.853 : en:01:49:27.853




Скачать История призрака через торрент https://pic1.kartinco.top/images/11/hl9qq.jpg Скачать, смотреть онлайн История призрака бесплантно в хорошем качестве Описание: Молодой музыкант попадает в автомобильную катастрофу. Вместо того, чтобы отправиться в иной мир, он решает остаться в родном ... 8.9 10 17
Info! Серебряная раздача, засчитывается только 50% скачанного.
Торрент: Зарегистрирован [2018-04-09 04:57] · скачан: 688 раз
Статус: √ проверено
Размер: 8.98 GB
Как cкачать? Как скачать История призрака через торрент | UTorrent

% Раздел Тема Автор DL S | L
Фильмы 2017 [DVDrip, WEB-DLRip, HDrip] (DUB, MVO) [ 1.46 GB ] История призрака / A Ghost Story | Лицензия | BDRip Twi7ter Скачать
1 | 0
Фильмы (Blu-ray, BD-Remux, HDDVD) [ 15.78 GB ] История призрака / A Ghost Story | Лицензия | 1080p sheker187 Скачать
1 | 0
Фильмы с авторской озвучкой [ 1.51 GB ] История призрака / A Ghost Story | AVO | HDRip Enigma2010 Скачать
2 | 0
Фильмы 2017 [DVDrip, WEB-DLRip, HDrip] (DUB, MVO) [ 709 MB ] История призрака / A Ghost Story | iTunes" | DLRip, Дубляж "iTunes" coc900 Скачать
1 | 0
Фильмы 2017 [DVDrip, WEB-DLRip, HDrip] (DUB, MVO) [ 1.42 GB ] История призрака / A Ghost Story | iTunes | BDRip bober100 Скачать
1 | 0
Фильмы 2017 [DVDrip, WEB-DLRip, HDrip] (DUB, MVO) [ 1.88 GB ] История призрака / A Ghost Story | iTunes | BDRip-AVC bober100 Скачать
1 | 0

28-11-2019 20:33  


Отключить вcю реклaмy на сайте, в т.ч. и в плеере онлайн просмотра!

10-04-2018 05:26 История призрака Скачать торрент  

Бред не тратте время



12-04-2018 09:44 История призрака Скачать торрент  

Да вообще не стоит смотреть, любительская съёмка и то лучше



22-04-2018 14:42 История призрака Скачать торрент  

отличный фильм



    Дорогой пользователь! Огромная просьба, поблагодарите релизера, оцените раздачу и оставьте свои комментарий, если Вы скачали История призрака через торрент бесплатно!!
    Комментировать посты могут только пользователи прошедшие не сложную регистрацию
    Показать сообщения:    


    История призрака через торрент
    Скачать бесплатно История призрака
    История призрака скачать торрент
    История призрака смотреть онлайн
    Cкачать фильм История призрака бесплатно
    История призрака скачать торрент в хорошем качестве
    История призрака смотреть онлайн бесплатно в хорошем качестве
    Вы не можете начинать темы
    Вы не можете отвечать на сообщения
    Вы не можете редактировать свои сообщения
    Вы не можете удалять свои сообщения
    Вы не можете голосовать в опросах
    Вы не можете прикреплять файлы к сообщениям
    Вы можете скачивать файлы
    История призрака / A Ghost Story [2017, Драма, мелодрама, фэнтези, BDRip 1080p] Дубляж [iTunes] смотреть онлайн, скачать торрент picoco.icu