Достать ножи: Стеклянная луковица

MVO

Добыча

Дубляж

Уэнсдэй

1 сезон

Тор

Дубляж

13 клиническая

1 сезон

Жестокая ночь

MVO

Одни из нас

1 сезон

Deluxe

pack

Рекомендуем

30

Пиратка

ВАЖНО

ВАЖНО

Ghostwire

Пиратка

jed

RePack

nioh2

RePack

RDR2

RePack

NEED FOR SPEED™ PAYBACK

RePack

скачать торрент

Кинопоиск HD

Острые козырьки 6 сезон

6 сезон

FAR CRY 6

RePack

скачать торрент

Лицензия

скачать торрент

MVO

1

1 сезон

скачать торрент

1 сезон

скачать торрент

Лицензия

  

История призрака / A Ghost Story (Дэвид Лоури) [2017, Драма, мелодрама, фэнтези, BDRip-AVC] Дубляж [iTunes]

История призрака через торрент pb.wtf

Размер: 1.88 GB | Добавлен: 4 года 9 мес. назад | Торрент скачан:297 раз
Смотреть онлайн | Скачать | Поддержите нас   

09-04-2018 05:04 История призрака Скачать торрент  

История призрака / A Ghost Story
Год выпуска: 2017
Страна: США
Жанр: Драма, мелодрама, фэнтези
Продолжительность: 01:32:07
Перевод: Дублированный | iTunes
Субтитры: русские, английские

Режиссер: Дэвид Лоури

rating

В ролях:

Кейси Аффлек, Руни Мара, МакКольм Сепас мл., Кеннейша Томпсон, Гроувер Колсон, Лизбет Карденас, Барлоу Джейкобс, Ричард Крауз, Дэггер Салазар, Соня Асеведо

Описание:

Молодой музыкант попадает в автомобильную катастрофу. Вместо того, чтобы отправиться в иной мир, он решает остаться в родном доме. Проживая за разом историю дома, он встречается со всеми его владельцами.

Качество: BDRip-AVC
Формат: MKV

Видео: 768x576 (4:3), 23,976 fps, x264 ~2 093 kbps avg, 0.197 bit/pixel
Аудио#1: 48 kHz, AC3 Dolby Digital, 3/2 (L,C,R,l,r) + LFE ch, ~384.00 kbps avg | RUS (iTunes)
Аудио#2: 48 kHz, AC3 Dolby Digital, 3/2 (L,C,R,l,r) + LFE ch, ~448.00 kbps avg | ENG
скриншот   скриншот   скриншот   скриншот  

Общее
Уникальный идентификатор : 204586632706505434592156896697146121561 (0x99E9F3C45E1873999D38EA49E7539D59)
Полное имя : E:\OlLanDGroup\A.Ghost.Story.2017.BDRip(AVC).mkv
Формат : Matroska
Версия формата : Version 2
Размер файла : 1,88 Гбайт
Продолжительность : 1 ч. 32 м.
Общий поток : 2926 Кбит/сек
Название фильма : A.Ghost.Story.2017 #TorpedoUK#
Дата кодирования : UTC 2018-04-09 00:51:47
Программа кодирования : mkvmerge v7.8.0 ('River Man') 32bit built on Apr 3 2015 12:11:22
Библиотека кодирования : libebml v1.3.1 + libmatroska v1.4.2
Обложка : Yes
Attachments : cover_land.jpg / small_cover.jpg / small_cover_land.jpg / cover.jpg

Видео
Идентификатор : 1
Формат : AVC
Формат/Информация : Advanced Video Codec
Профиль формата : [email protected]
Параметр CABAC формата : Да
Параметр ReFrames формата : 10 кадров
Идентификатор кодека : V_MPEG4/ISO/AVC
Продолжительность : 1 ч. 32 м.
Битрейт : 2093 Кбит/сек
Ширина : 768 пикселей
Высота : 576 пикселей
Соотношение сторон : 4:3
Режим частоты кадров : Постоянный
Частота кадров : 23,976 (24000/1001) кадра/сек
Цветовое пространство : YUV
Субдискретизация насыщенности : 4:2:0
Битовая глубина : 8 бит
Тип развёртки : Прогрессивная
Бит/(Пиксели*Кадры) : 0.197
Размер потока : 1,31 Гбайт (70%)
Библиотека кодирования : x264 core 146 r2538 121396c
Настройки программы : cabac=1 / ref=10 / deblock=1:-2:-3 / analyse=0x3:0x133 / me=umh / subme=11 / psy=1 / psy_rd=0.95:0.10 / mixed_ref=1 / me_range=48 / chroma_me=1 / trellis=2 / 8x8dct=1 / cqm=0 / deadzone=21,11 / fast_pskip=1 / chroma_qp_offset=-3 / threads=6 / lookahead_threads=1 / sliced_threads=0 / nr=0 / decimate=1 / interlaced=0 / bluray_compat=0 / constrained_intra=0 / bframes=10 / b_pyramid=2 / b_adapt=2 / b_bias=0 / direct=3 / weightb=1 / open_gop=0 / weightp=2 / keyint=240 / keyint_min=23 / scenecut=40 / intra_refresh=0 / rc_lookahead=40 / rc=2pass / mbtree=0 / bitrate=2093 / ratetol=1.0 / qcomp=0.60 / qpmin=0 / qpmax=69 / qpstep=4 / cplxblur=20.0 / qblur=0.5 / vbv_maxrate=50000 / vbv_bufsize=62500 / nal_hrd=none / filler=0 / ip_ratio=1.40 / pb_ratio=1.30 / aq=1:1.00
Язык : English
Default : Да
Forced : Нет

Аудио #1
Идентификатор : 2
Формат : AC-3
Формат/Информация : Audio Coding 3
Расширение режима : CM (complete main)
Параметр Endianness формата : Big
Идентификатор кодека : A_AC3
Продолжительность : 1 ч. 32 м.
Вид битрейта : Постоянный
Битрейт : 384 Кбит/сек
Каналы : 6 каналов
Расположение каналов : Front: L C R, Side: L R, LFE
Частота : 48,0 КГц
Частота кадров : 31,250 кадров/сек (1536 spf)
Битовая глубина : 16 бит
Метод сжатия : С потерями
Размер потока : 253 Мбайт (13%)
Заголовок : iTunes
Язык : Russian
Default : Да
Forced : Нет

Аудио #2
Идентификатор : 3
Формат : AC-3
Формат/Информация : Audio Coding 3
Расширение режима : CM (complete main)
Параметр Endianness формата : Big
Идентификатор кодека : A_AC3
Продолжительность : 1 ч. 32 м.
Вид битрейта : Постоянный
Битрейт : 448 Кбит/сек
Каналы : 6 каналов
Расположение каналов : Front: L C R, Side: L R, LFE
Частота : 48,0 КГц
Частота кадров : 31,250 кадров/сек (1536 spf)
Битовая глубина : 16 бит
Метод сжатия : С потерями
Размер потока : 295 Мбайт (15%)
Заголовок : Original
Язык : English
Default : Нет
Forced : Нет

Текст #1
Идентификатор : 4
Формат : UTF-8
Идентификатор кодека : S_TEXT/UTF8
Идентификатор кодека/Информация : UTF-8 Plain Text
Заголовок : Full
Язык : Russian
Default : Нет
Forced : Нет

Текст #2
Идентификатор : 5
Формат : UTF-8
Идентификатор кодека : S_TEXT/UTF8
Идентификатор кодека/Информация : UTF-8 Plain Text
Заголовок : Full
Язык : English
Default : Нет
Forced : Нет

Текст #3
Идентификатор : 6
Формат : UTF-8
Идентификатор кодека : S_TEXT/UTF8
Идентификатор кодека/Информация : UTF-8 Plain Text
Заголовок : SDH
Язык : English
Default : Нет
Forced : Нет

Меню
00:00:00.000 : en:Chapter 01
00:06:12.622 : en:Chapter 02
00:11:27.103 : en:Chapter 03
00:16:09.802 : en:Chapter 04
00:22:37.397 : en:Chapter 05
00:26:38.221 : en:Chapter 06
00:33:45.982 : en:Chapter 07
00:38:27.013 : en:Chapter 08
00:43:49.668 : en:Chapter 09
00:49:56.702 : en:Chapter 10
00:56:13.870 : en:Chapter 11
01:04:44.630 : en:Chapter 12
01:08:55.840 : en:Chapter 13
01:11:44.717 : en:Chapter 14
01:18:37.963 : en:Chapter 15
01:23:09.567 : en:Chapter 16




Скачать История призрака через торрент https://pic1.kartinco.top/images/11/n18id.jpg Скачать, смотреть онлайн История призрака бесплантно в хорошем качестве Описание: Молодой музыкант попадает в автомобильную катастрофу. Вместо того, чтобы отправиться в иной мир, он решает остаться в родном ... 8.4 10 11
Торрент: Зарегистрирован [2018-04-09 05:04] · скачан: 297 раз
Статус: √ проверено
Размер: 1.88 GB
Как cкачать? Как скачать История призрака через торрент | UTorrent

% Раздел Тема Автор DL S | L
Фильмы 2017 [DVDrip, WEB-DLRip, HDrip] (DUB, MVO) [ 1.46 GB ] История призрака / A Ghost Story | Лицензия | BDRip Twi7ter Скачать
1 | 0
Фильмы (Blu-ray, BD-Remux, HDDVD) [ 15.78 GB ] История призрака / A Ghost Story | Лицензия | 1080p sheker187 Скачать
1 | 0
Фильмы [HD 720p, 1080p] (Хороший звук DUB, MVO) [ 8.98 GB ] История призрака / A Ghost Story | iTunes | 1080p bober100 Скачать
1 | 0
Фильмы с авторской озвучкой [ 1.51 GB ] История призрака / A Ghost Story | AVO | HDRip Enigma2010 Скачать
2 | 0
Фильмы 2017 [DVDrip, WEB-DLRip, HDrip] (DUB, MVO) [ 709 MB ] История призрака / A Ghost Story | iTunes" | DLRip, Дубляж "iTunes" coc900 Скачать
1 | 0
Фильмы 2017 [DVDrip, WEB-DLRip, HDrip] (DUB, MVO) [ 1.42 GB ] История призрака / A Ghost Story | iTunes | BDRip bober100 Скачать
1 | 0

28-11-2019 20:33  


Отключить вcю реклaмy на сайте, в т.ч. и в плеере онлайн просмотра!

    Дорогой пользователь! Огромная просьба, поблагодарите релизера, оцените раздачу и оставьте свои комментарий, если Вы скачали История призрака через торрент бесплатно!!
    Комментировать посты могут только пользователи прошедшие не сложную регистрацию
    Показать сообщения:    


    История призрака через торрент
    Скачать бесплатно История призрака
    История призрака скачать торрент
    История призрака смотреть онлайн
    Cкачать фильм История призрака бесплатно
    История призрака скачать торрент в хорошем качестве
    История призрака смотреть онлайн бесплатно в хорошем качестве
    Вы не можете начинать темы
    Вы не можете отвечать на сообщения
    Вы не можете редактировать свои сообщения
    Вы не можете удалять свои сообщения
    Вы не можете голосовать в опросах
    Вы не можете прикреплять файлы к сообщениям
    Вы можете скачивать файлы
    История призрака / A Ghost Story [2017, Драма, мелодрама, фэнтези, BDRip-AVC] Дубляж [iTunes] смотреть онлайн, скачать торрент picoco.icu