Ссылка на приватное зеркало нашего сайта всего за 1$. Внимание количество ограничено!!!

2 сезон

iTunes

1 сезон

1

2 сезон

2 сезон

iTunes

1 сезон

RePack

30

Новинка

ВАЖНО

ИГРА 18+

pack

RePack

MK11
pack

Забери бонус

RePack

jed

!!Акция!!

Alien_Rage

RePack

fifa19

RePack

Assassins Creed: Odyssey

RePack

NEED FOR SPEED™ PAYBACK

4 сезон

9 сезон

Бесстыжие 9 сезон

Все сериалы

все сериалы на PB.wtf

RePack

FAR CRY 5
  

Две матери, две дочери / Barrage (Лаура Шредер) [2017, Драма, WEB-DL 720p] MVO [Лицензия / iTunes] pb.wtf

Две матери, две дочери через торрент pb.wtf

Размер: 3.4 GB | Добавлен: 2 года 7 мес. назад | Торрент скачан:11 раз
Скачать  

09-04-2018 14:11 Две матери, две дочери Скачать торрент  

Две матери, две дочери / BarrageГод выпуска: 2017
Страна: Люксембург, Бельгия, Франция
Жанр: Драма
Продолжительность: 01:50:51
Перевод: Профессиональный многоголосый | Лицензия / iTunes
Субтитры: Русские, всегда включены

Режиссер: Лаура Шредер

rating

В ролях:

Лолита Шамма, Темис Повель, Изабель Юппер, Эльза Хубен, Марья-Леена Юнкер, Чарльз Мюллер, Люк Шилтц и др.

Описание:

После десятилетнего отсутствия Кэтрин возвращается в Люксембург, чтобы восстановить отношения с дочерью-подростком Альбой, которая все это время росла под присмотром властной бабушки Элизабет. Девочка принимает мать настороженно и та решается на отчаянный шаг — похищает дочь и увозит ее на Север, в домик на озере.

Качество: WEB-DL 720p
Формат: MKV

Видео: MPEG-4 AVC, 966x720, 4008 kbps, 24,000 fps
Аудио: Русский, AC3, 6 ch, 48 kHz, 384 kbps
скриншот   скриншот   скриншот   скриншот  

Общее
Уникальный идентификатор : 245412234071256068385662469406517935365 (0xB8A0AD51F2BC9A7BA8C6323409F4BD05)
Полное имя : G:DelugeДве матери, две дочери (HD).mkv
Формат : Matroska
Версия формата : Version 4 / Version 2
Размер файла : 3,40 Гбайт
Продолжительность : 1 ч. 50 м.
Общий поток : 4393 Кбит/сек
Дата кодирования : UTC 2018-04-09 11:50:22
Программа кодирования : mkvmerge v9.5.0 ('Quiet Fire') 64bit
Библиотека кодирования : libebml v1.3.4 + libmatroska v1.4.5

Видео
Идентификатор : 1
Формат : AVC
Формат/Информация : Advanced Video Codec
Профиль формата : Main@L3.1
Настройки формата : 2 Ref Frames
Параметр CABAC формата : Нет
Параметр RefFrames формата : 2 кадра
Идентификатор кодека : V_MPEG4/ISO/AVC
Продолжительность : 1 ч. 50 м.
Битрейт : 4008 Кбит/сек
Ширина : 966 пикселей
Высота : 720 пикселей
Соотношение сторон : 4:3
Режим частоты кадров : Постоянный
Частота кадров : 24,000 кадра/сек
Цветовое пространство : YUV
Субдискретизация насыщенности : 4:2:0
Битовая глубина : 8 бит
Тип развёртки : Прогрессивная
Бит/(Пиксели*Кадры) : 0.240
Размер потока : 3,10 Гбайт (91%)
Язык : English
Default : Да
Forced : Нет
Цветовой диапазон : Limited
Основные цвета : BT.709
Характеристики трансфера : BT.709
Коэффициенты матрицы : BT.709

Аудио
Идентификатор : 2
Формат : AC-3
Формат/Информация : Audio Coding 3
Идентификатор кодека : A_AC3
Продолжительность : 1 ч. 50 м.
Вид битрейта : Постоянный
Битрейт : 384 Кбит/сек
Каналы : 6 каналов
Расположение каналов : Front: L C R, Side: L R, LFE
Частота : 48,0 КГц
Частота кадров : 31,250 кадров/сек (1536 SPF)
Битовая глубина : 16 бит
Метод сжатия : С потерями
Размер потока : 304 Мбайт (9%)
Язык : Russian
Default : Да
Forced : Нет

Меню
00:00:00.000 : en:Глава 1
00:06:40.000 : en:Глава 2
00:12:50.833 : en:Глава 3
00:17:16.416 : en:Глава 4
00:22:11.166 : en:Глава 5
00:27:35.832 : en:Глава 6
00:34:15.998 : en:Глава 7
00:39:20.039 : en:Глава 8
00:45:18.539 : en:Глава 9
00:51:48.914 : en:Глава 10
00:57:43.914 : en:Глава 11
01:04:27.580 : en:Глава 12
01:11:31.288 : en:Глава 13
01:16:53.621 : en:Глава 14
01:23:49.204 : en:Глава 15
01:29:16.287 : en:Глава 16
01:37:03.912 : en:Глава 17

pb.wtf



Скачать Две матери, две дочери через торрент http://i104.fastpic.ru/big/2018/0408/6e/086cd6f251efbadc7523e90f61c94c6e.jpg Скачать фильм Две матери, две дочери через торрент бесплантно в хорошем качестве Описание: После десятилетнего отсутствия Кэтрин возвращается в Люксембург, чтобы восстановить отношения с дочерью-подростком Альбой, ... 10 10 2
Торрент: Зарегистрирован [2018-04-09 14:11] · скачан: 11 раз
Статус: √ проверено
Размер: 3.4 GB
Как cкачать? Как скачать Две матери, две дочери через торрент | qTorrent

% Раздел Тема Автор DL S | L
Фильмы (WEB-DL 720p, 1080p) [ 4.11 GB ] Две матери две дочери / Barrage [2017 WEB-DL 1080p] MVO bober100 Скачать
1 | 0

28-11-2019 20:33  

Отключить всю рекламу на сайте

    Дорогой пользователь! Огромная просьба, поблагодарите релизера, оцените раздачу и оставьте свои комментарий, если Вы скачали Две матери, две дочери через торрент бесплатно! Внесите свою лепту в развитие PiratBit!
    Комментировать посты могут только пользователи прошедшие не сложную регистрацию
    Показать сообщения:    

    Две матери, две дочери через торрент
    Скачать бесплатно Две матери, две дочери
    Две матери, две дочери скачать торрент
    Две матери, две дочери смотреть онлайн
    Cкачать фильм Две матери, две дочери бесплатно
    Две матери, две дочери скачать торрент в хорошем качестве
    Две матери, две дочери смотреть онлайн бесплатно в хорошем качестве


    Вы не можете начинать темы
    Вы не можете отвечать на сообщения
    Вы не можете редактировать свои сообщения
    Вы не можете удалять свои сообщения
    Вы не можете голосовать в опросах
    Вы не можете прикреплять файлы к сообщениям
    Вы можете скачивать файлы