Ссылка на приватное зеркало нашего сайта всего за 1$. Внимание количество ограничено!!!

2 сезон

iTunes

1 сезон

1

iTunes

iTunes

iTunes

1 сезон

RePack

30

ИГРА 18+

pack

ВАЖНО

!!Акция!!

Alien_RageХит недели

RePack

MK11
pack

Забери бонус

RePack

jed

!!Акция!!

Alien_Rage

RePack

fifa19

RePack

Assassins Creed: Odyssey

RePack

NEED FOR SPEED™ PAYBACK

4 сезон

9 сезон

Бесстыжие 9 сезон

Все сериалы

все сериалы на PB.wtf

RePack

FAR CRY 5
  

Частица Вселенной / Сезон: 1 / Серии: 1-8 из 8 [2018, Драма, SATRip] pb.wtf

Частица Вселенной через торрент pb.wtf

Размер: 5.05 GB | Добавлен: 2 года 6 мес. назад | Торрент скачан:119 раз
Скачать  

09-04-2018 14:32 Частица Вселенной Скачать торрент  

Частица ВселеннойГод выпуска: 2018
Страна: Россия
Жанр: Драма
Продолжительность: ~ 00:47:00
Субтитры: отсутствуют

В ролях:

Алексей Макаров, Сергей Пускепалис, Владимир Яглыч, Виктория Исакова, Анна Михалкова, Яна Гладких, Александра Бортич, Сергей Походаев, Алексей Агранович, Яна Сексте, Казимир Лиске, Андрей Смирнов, Александр Резалин, Тимур Бадалбейли, Евгений Гришковец, Сергей Шеховцов, Елена Смирнова (IV), Микаэл Джанибекян, Сергей Юшкевич, Алёна Лаптева

Описание:

Это история о настоящих Героях. Которые живут здесь и сейчас. И на которых хочется быть похожими. Это история о настоящих Женщинах, которые умеют ждать. О людях, которые работают на космос в ЦУПе и Звёздном, на Байконуре и в институте космической медицины. Это кино о Подвиге, настоящей мужской дружбе и большой любви. О том, чего нам в этой жизни так не хватает...

Качество: SATRip
Формат: AVI

Видео: XviD, 1800 Кбит/с, 704x448
Аудио: МР3, 2 ch, 128 Кбит/с
скриншот  скриншот  скриншот  

Общее
Полное имя : E:\торреннты\Частица Вселенной (2018)\Chastica.vselennoj.01.SATRip.avi
Формат : AVI
Формат/Информация : Audio Video Interleave
Размер файла : 557 Мбайт
Продолжительность : 40 м. 12 с.
Общий поток : 1938 Кбит/сек
Программа кодирования : VirtualDubMod 1.5.10.3 | www.virtualdub-fr.org || (build 2550/release)
Библиотека кодирования : VirtualDubMod build 2550/release

Видео
Идентификатор : 0
Формат : MPEG-4 Visual
Профиль формата : Advanced Simple@L5
Настройки формата : BVOP2
Параметр BVOP формата : 2
Параметр QPel формата : Нет
Параметр GMC формата : Без точки перехода
Параметр матрицы формата : Default (H.263)
Идентификатор кодека : XVID
Идентификатор кодека/Подсказка : XviD
Продолжительность : 40 м. 12 с.
Битрейт : 1800 Кбит/сек
Ширина : 704 пикселя
Высота : 448 пикселей
Соотношение сторон : 16:10
Частота кадров : 25,000 кадров/сек
Цветовое пространство : YUV
Субдискретизация насыщенности : 4:2:0
Битовая глубина : 8 бит
Тип развёртки : Прогрессивная
Метод сжатия : С потерями
Бит/(Пиксели*Кадры) : 0.228
Размер потока : 518 Мбайт (93%)
Библиотека кодирования : XviD 1.2.1 (UTC 2008-12-04)

Аудио
Идентификатор : 1
Формат : MPEG Audio
Версия формата : Version 1
Профиль формата : Layer 3
Настройки формата : Joint stereo / MS Stereo
Идентификатор кодека : 55
Идентификатор кодека/Подсказка : MP3
Продолжительность : 40 м. 12 с.
Вид битрейта : Постоянный
Битрейт : 128 Кбит/сек
Каналы : 2 канала
Частота : 48,0 КГц
Частота кадров : 41,667 кадра/сек (1152 SPF)
Метод сжатия : С потерями
Размер потока : 36,8 Мбайт (7%)
Выравнивание : Соединение по промежуткам
Продолжительность промежутка : 40 мс. (1,00 видеокадр)
Время предзагрузки промежутка : 504 мс.
Библиотека кодирования : LAME3.99r
Настройки программы : -m j -V 4 -q 9 -lowpass 17 -b 128

pb.wtf



Скачать Частица Вселенной через торрент http://c.radikal.ru/c14/1804/ee/005d01d24d23.jpg Скачать фильм Частица Вселенной через торрент бесплантно в хорошем качестве Описание: Это история о настоящих Героях. Которые живут здесь и сейчас. И на которых хочется быть похожими. Это история о настоящих ... 8.5 10 6
Торрент: Зарегистрирован [2018-04-12 16:01] · скачан: 119 раз
Статус: √ проверено
Размер: 5.05 GB
Как cкачать? Как скачать Частица Вселенной через торрент | qTorrent

28-11-2019 20:33  

Отключить всю рекламу на сайте

    Дорогой пользователь! Огромная просьба, поблагодарите релизера, оцените раздачу и оставьте свои комментарий, если Вы скачали Частица Вселенной через торрент бесплатно! Внесите свою лепту в развитие PiratBit!
    Комментировать посты могут только пользователи прошедшие не сложную регистрацию
    Показать сообщения:    

    Частица Вселенной через торрент
    Скачать бесплатно Частица Вселенной
    Частица Вселенной скачать торрент
    Частица Вселенной смотреть онлайн
    Cкачать фильм Частица Вселенной бесплатно
    Частица Вселенной скачать торрент в хорошем качестве
    Частица Вселенной смотреть онлайн бесплатно в хорошем качестве


    Вы не можете начинать темы
    Вы не можете отвечать на сообщения
    Вы не можете редактировать свои сообщения
    Вы не можете удалять свои сообщения
    Вы не можете голосовать в опросах
    Вы не можете прикреплять файлы к сообщениям
    Вы можете скачивать файлы