2 сезон

iTunes

MVO

1

2 сезон

iTunes

iTunes

1 сезон

RePack

30

Ultimate

ВАЖНО

ИГРА 18+

pack

RePack

MK11
pack

Легкие деньги

RePack

jed

RePack

fifa19

RePack

RDR2

RePack

NEED FOR SPEED™ PAYBACK

4 сезон

9 сезон

Бесстыжие 9 сезон

Все сериалы

все сериалы на PB.wtf

RePack

FAR CRY 5

Anonymous, доброе утро, мы не успеваем собрать деньги на оплату серверов за декабрь и январь, помогите нам пожалуйста в это трудное время. В качестве благодарности мы отключим Вам всю рекламу на сайте (укажите свой ник в строку Ваше имя)!

×
  
Magnet ссылка

История призрака / A Ghost Story (Дэвид Лоури) [2017 г., фэнтези, драма, мелодрама, WEB-DLRip, Дубляж "iTunes"] pb.wtf

История призрака через торрент pb.wtf

Размер: 709 MB | Добавлен: 2 года 9 мес. назад | Торрент скачан:93 раза
Скачать  

09-04-2018 18:12 История призрака Скачать торрент  

История призрака / A Ghost Story
Год выпуска: 2017
Страна: США / Sailor Bear, Zero Trans Fat Productions, Ideaman Studios
Жанр: фэнтези, драма, мелодрама
Продолжительность: 01:32:32
Перевод: Дубляж (iTunes)
Субтитры: Русские форсированные-хардсаб

Режиссер: Дэвид Лоури

rating

В ролях: Кейси Аффлек, Руни Мара, МакКольм Сепас мл., Кеннейша Томпсон, Гроувер Колсон, Лизбет Карденас, Барлоу Джейкобс, Richard Krause, Дэггер Салазар, Соня Асеведо

Описание: История о безвременно умершем мужчине, который не ушел в мир иной, а остался привязан к своему бывшему дому до скончания веков.

Качество: WEB-DLRip
Формат: AVI
Видео кодек: XviD
Аудио кодек: MP3
Видео: 640x480 (1.33:1), 23.976 fps, XviD build 50 ~933 kbps avg, 0.13 bit/pixel
Аудио: 48 kHz, MPEG Layer 3, 2 ch, ~128.00 kbps avg
скриншот   скриншот   скриншот   скриншот   скриншот   скриншот   скриншот   скриншот  

Общее
Полное имя : F:\ФИЛЬМЫ\История призрака,2017.D.WEB-DLRip.avi
Формат : AVI
Формат/Информация : Audio Video Interleave
Размер файла : 709 Мбайт
Продолжительность : 1 ч. 32 м.
Общий поток : 1071 Кбит/сек
Программа кодирования : VirtualDubMod 1.5.10.3 | www.virtualdub-fr.org || (build 2550/release)
Библиотека кодирования : VirtualDubMod build 2550/release

Видео
Идентификатор : 0
Формат : MPEG-4 Visual
Профиль формата : Advanced Simple@L5
Настройки формата : BVOP1
Параметр BVOP формата : 1
Параметр QPel формата : Нет
Параметр GMC формата : Без точки перехода
Параметр матрицы формата : Default (MPEG)
Идентификатор кодека : XVID
Идентификатор кодека/Подсказка : XviD
Продолжительность : 1 ч. 32 м.
Битрейт : 934 Кбит/сек
Ширина : 640 пикселей
Высота : 480 пикселей
Соотношение сторон : 4:3
Частота кадров : 23,976 (24000/1001) кадра/сек
Цветовое пространство : YUV
Субдискретизация насыщенности : 4:2:0
Битовая глубина : 8 бит
Тип развёртки : Прогрессивная
Метод сжатия : С потерями
Бит/(Пиксели*Кадры) : 0.127
Размер потока : 618 Мбайт (87%)
Библиотека кодирования : XviD 1.2.1 (UTC 2008-12-04)

Аудио
Идентификатор : 1
Формат : MPEG Audio
Версия формата : Version 1
Профиль формата : Layer 3
Настройки формата : Joint stereo
Идентификатор кодека : 55
Идентификатор кодека/Подсказка : MP3
Продолжительность : 1 ч. 32 м.
Вид битрейта : Постоянный
Битрейт : 128 Кбит/сек
Каналы : 2 канала
Частота : 48,0 КГц
Частота кадров : 41,667 кадра/сек (1152 SPF)
Метод сжатия : С потерями
Размер потока : 84,7 Мбайт (12%)
Выравнивание : Соединение по промежуткам
Продолжительность промежутка : 42 мс. (1,00 видеокадр)
Время предзагрузки промежутка : 504 мс.
Библиотека кодирования : LAME3.99r
Настройки программы : -m j -V 4 -q 2 -lowpass 17 -b 128

pb.wtf



Скачать История призрака через торрент https://pic1.kartinco.top/images/11/bsygq.jpg Скачать фильм История призрака через торрент бесплантно в хорошем качестве Описание: История о безвременно умершем мужчине, который не ушел в мир иной, а остался привязан к своему бывшему дому до скончания ... 9.6 10 5
Торрент: Зарегистрирован [2018-04-09 18:12] · скачан: 93 раз
Статус: √ проверено
Размер: 709 MB
Как cкачать? Как скачать История призрака через торрент | UTorrent

% Раздел Тема Автор DL S | L
Фильмы 2017 [DVDrip, WEB-DLRip, HDrip] (DUB, MVO) [ 1.46 GB ] История призрака / A Ghost Story [2017 BDRip] - [] Twi7ter Скачать
1 | 0
Фильмы (Blu-ray, BD-Remux, HDDVD) [ 15.78 GB ] История призрака / A Ghost Story [2017 BDRemux 1080p] - [] sheker187 Скачать
1 | 0
Фильмы [HD 720p, 1080p] (Хороший звук DUB, MVO) [ 8.98 GB ] История призрака / A Ghost Story [2017 BDRip 1080p] bober100 Скачать
1 | 0
Фильмы с авторской озвучкой [ 1.51 GB ] История призрака / A Ghost Story [2017 HDRip] AVO [BadBajo] - ExKinoRay Enigma2010 Скачать
2 | 0
Фильмы 2017 [DVDrip, WEB-DLRip, HDrip] (DUB, MVO) [ 1.42 GB ] История призрака / A Ghost Story [2017 BDRip] bober100 Скачать
1 | 0
Фильмы 2017 [DVDrip, WEB-DLRip, HDrip] (DUB, MVO) [ 1.88 GB ] История призрака / A Ghost Story [2017 BDRip-AVC] bober100 Скачать
1 | 0

28-11-2019 20:33  

Отключить всю рекламу на сайте

    Дорогой пользователь! Огромная просьба, поблагодарите релизера, оцените раздачу и оставьте свои комментарий, если Вы скачали История призрака через торрент бесплатно! Внесите свою лепту в развитие PiratBit!
    Комментировать посты могут только пользователи прошедшие не сложную регистрацию
    Показать сообщения:    

    История призрака через торрент
    Скачать бесплатно История призрака
    История призрака скачать торрент
    История призрака смотреть онлайн
    Cкачать фильм История призрака бесплатно
    История призрака скачать торрент в хорошем качестве
    История призрака смотреть онлайн бесплатно в хорошем качестве


    Вы не можете начинать темы
    Вы не можете отвечать на сообщения
    Вы не можете редактировать свои сообщения
    Вы не можете удалять свои сообщения
    Вы не можете голосовать в опросах
    Вы не можете прикреплять файлы к сообщениям
    Вы можете скачивать файлы