Достать ножи: Стеклянная луковица

MVO

Добыча

Дубляж

Уэнсдэй

1 сезон

Тор

Дубляж

13 клиническая

1 сезон

Жестокая ночь

MVO

Одни из нас

1 сезон

Deluxe

pack

Рекомендуем

30

Пиратка

ВАЖНО

ВАЖНО

Ghostwire

Пиратка

jed

RePack

nioh2

RePack

RDR2

RePack

NEED FOR SPEED™ PAYBACK

RePack

скачать торрент

Кинопоиск HD

Острые козырьки 6 сезон

6 сезон

FAR CRY 6

RePack

скачать торрент

Лицензия

скачать торрент

MVO

1

1 сезон

скачать торрент

1 сезон

скачать торрент

Лицензия

  

Пятница 13-е / Friday the 13th (Маркус Ниспел) [2009 г., Ужасы, HDRip-AVC, Дубляж BD CEE] [Theatrical Cut]

Пятница 13-е через торрент pb.wtf

Размер: 2.19 GB | Добавлен: 4 года 9 мес. назад | Торрент скачан:18 раз
Смотреть онлайн | Скачать | Поддержите нас   

09-04-2018 21:28 Пятница 13-е Скачать торрент  

Пятница 13-е /
Friday the 13th
Год выпуска: 2009
Страна: США
Жанр: Ужасы
Продолжительность: 01:37:10
Перевод: Дубляж BD CEE
Субтитры: отсутствуют

Режиссер: Маркус Ниспел

Премьера в мире: 9 февраля 2009

rating

В ролях: Джаред Падалецки, Даниэль Панабэйкер, Аманда Риджетти, Трэвис Ван Винкл, Аарон Йу, Дерек Мирс и др.

Описание: Молодые друзья Уитни, Майк, Ричи, Аманда и Уэйд заблудились в лесах около заброшенного лагеря «Хрустальное озеро». Когда их любопытство взяло верх, они решили посетить то место, где когда-то обитал убийца-психопат. Тем временем Трент приглашает друзей: Джену, Брии, Чеви, Челси, Лоуренса и Нолана в его хижину, расположенную у озера, на уикэнд, полный секса, выпивки и наркотиков.
Однако их забавный уикэнд, по-видимому, скоро перерастет в кошмар после того, как одинокий путешественник Клэй начинает поиски своей пропавшей сестры Уитни, и молодые тинейджеры вскоре оказываются лицом к лицу со злом, заново рожденным, невообразимым, и усовершенствованным, его имя Джейсон Вурхиз!

Качество: HDRip-AVC
Формат: MKV
Видео кодек: H.264
Аудио кодек: AC3
Видео: AVC/H.264, 1024х426 (2,40:1), ~2774 kbps, 0.265 bit/pixel
Аудио#1: AC3, 6 ch, 488 kbps - Дубляж (BD CEE)
Релиз от: winchester00100010Семпл
Общее
Уникальный идентификатор : 179826992575099964254886823490104632966 (0x87496B4255DFF2AE95D96F7CC4E0A686)
Полное имя : E:\Торрент файлы раздач вместе с фильмами\Friday.the.13th.2009.Theatrical.Cut.HDRip-AVC.mkv
Формат : Matroska
Версия формата : Version 2
Размер файла : 2,19 Гбайт
Продолжительность : 1 ч. 37 м.
Общий поток : 3221 Кбит/сек
Дата кодирования : UTC 2018-04-09 20:42:52
Программа кодирования : mkvmerge v5.8.0 ('No Sleep / Pillow') built on Sep 2 2012 15:37:04
Библиотека кодирования : libebml v1.2.3 + libmatroska v1.3.0

Видео
Идентификатор : 1
Формат : AVC
Формат/Информация : Advanced Video Codec
Профиль формата : [email protected]
Настройки формата : CABAC / 11 Ref Frames
Параметр CABAC формата : Да
Параметр RefFrames формата : 11 кадров
Идентификатор кодека : V_MPEG4/ISO/AVC
Продолжительность : 1 ч. 37 м.
Битрейт : 2774 Кбит/сек
Ширина : 1024 пикселя
Высота : 426 пикселей
Соотношение сторон : 2,40:1
Режим частоты кадров : Постоянный
Частота кадров : 23,976 (24000/1001) кадра/сек
Цветовое пространство : YUV
Субдискретизация насыщенности : 4:2:0
Битовая глубина : 8 бит
Тип развёртки : Прогрессивная
Бит/(Пиксели*Кадры) : 0.265
Размер потока : 1,84 Гбайт (84%)
Библиотека кодирования : x264 core 155 r2901 7d0ff22
Настройки программы : cabac=1 / ref=11 / deblock=1:-1:-1 / analyse=0x3:0x113 / me=umh / subme=9 / psy=1 / psy_rd=1.00:0.00 / mixed_ref=1 / me_range=24 / chroma_me=1 / trellis=2 / 8x8dct=1 / cqm=0 / deadzone=21,11 / fast_pskip=0 / chroma_qp_offset=-2 / threads=12 / lookahead_threads=1 / sliced_threads=0 / nr=0 / decimate=0 / interlaced=0 / bluray_compat=0 / constrained_intra=0 / bframes=6 / b_pyramid=2 / b_adapt=2 / b_bias=0 / direct=3 / weightb=1 / open_gop=0 / weightp=2 / keyint=240 / keyint_min=23 / scenecut=40 / intra_refresh=0 / rc_lookahead=40 / rc=2pass / mbtree=0 / bitrate=2774 / ratetol=1.0 / qcomp=0.60 / qpmin=0 / qpmax=69 / qpstep=4 / cplxblur=20.0 / qblur=0.5 / vbv_maxrate=14000 / vbv_bufsize=14000 / nal_hrd=none / filler=0 / ip_ratio=1.40 / pb_ratio=1.30 / aq=1:1.00
Default : Да
Forced : Нет
Statistics Tags Issue : mkvmerge v21.0.0 ('Tardigrades Will Inherit The Earth') 64-bit 2018-04-09 20:02:30 / mkvmerge v5.8.0 ('No Sleep / Pillow') built on Sep 2 2012 15:37:04 2018-04-09 20:42:52
FromStats_BitRate : 2771654
FromStats_Duration : 01:37:10.825000000
FromStats_FrameCount : 139800
FromStats_StreamSize : 2020129270

Аудио
Идентификатор : 2
Формат : AC-3
Формат/Информация : Audio Coding 3
Идентификатор кодека : A_AC3
Продолжительность : 1 ч. 37 м.
Вид битрейта : Постоянный
Битрейт : 448 Кбит/сек
Каналы : 6 каналов
Расположение каналов : Front: L C R, Side: L R, LFE
Частота : 48,0 КГц
Частота кадров : 31,250 кадров/сек (1536 SPF)
Битовая глубина : 16 бит
Метод сжатия : С потерями
Размер потока : 311 Мбайт (14%)
ServiceKind/String : Complete Main
Default : Да
Forced : Нет




Скачать Пятница 13-е через торрент https://st-kp-yandex-net.translate.goog/images/film_iphone/iphone360_251790.jpg Скачать, смотреть онлайн Пятница 13-е бесплантно в хорошем качестве Описание: Молодые друзья Уитни, Майк, Ричи, Аманда и Уэйд заблудились в лесах около заброшенного лагеря «Хрустальное озеро». Когда их ... 10 10 1
Info! Золотая раздача, скачанное не засчитывается.
Торрент: Зарегистрирован [2018-04-09 21:28] · скачан: 18 раз
Статус: √ проверено
Размер: 2.19 GB
Как cкачать? Как скачать Пятница 13-е через торрент | UTorrent

% Раздел Тема Автор DL S | L
Фильмы [HD 720p, 1080p] (Хороший звук DUB, MVO) [ 9.07 GB ] Пятница, 13-е | DUB | 1080p Леонид Ильич Скачать
1 | 0
Фильмы 2009 [ 1.75 GB ] Пятница 13-е / Friday the 13th | Дубляж BD CEE + Двухголосый | BDRip-AVC, Дубляж BD CEE + Двухголосый winchester00100010 Скачать
1 | 0
Фильмы 2009 [ 1.2 GB ] Пятница 13-е / Friday the 13th | Дубляж BD CEE | BDRip-AVC, Дубляж BD CEE winchester00100010 Скачать
1 | 0
Фильмы [HD 720p, 1080p] (Хороший звук DUB, MVO) [ 8.24 GB ] Пятница 13-е / Friday the 13th | Лицензия | 1080p bober100 Скачать
1 | 0
Фильмы 2009 [ 1.37 GB ] Пятница 13-е / Friday the 13th | DUB | DVDRip, DUB Jack_orsk Скачать
1 | 0
Фильмы 2009 [ 1.46 GB ] Пятница 13-е | | BDRip Leshka37 Скачать
1 | 0
Фильмы 2009 [ 761 MB ] Пятница 13-е / Friday the 13th | | HDRip Venxxx Скачать
1 | 0

28-11-2019 20:33  


Отключить вcю реклaмy на сайте, в т.ч. и в плеере онлайн просмотра!

    Дорогой пользователь! Огромная просьба, поблагодарите релизера, оцените раздачу и оставьте свои комментарий, если Вы скачали Пятница 13-е через торрент бесплатно!!
    Комментировать посты могут только пользователи прошедшие не сложную регистрацию
    Показать сообщения:    


    Пятница 13-е через торрент
    Скачать бесплатно Пятница 13-е
    Пятница 13-е скачать торрент
    Пятница 13-е смотреть онлайн
    Cкачать фильм Пятница 13-е бесплатно
    Пятница 13-е скачать торрент в хорошем качестве
    Пятница 13-е смотреть онлайн бесплатно в хорошем качестве
    Вы не можете начинать темы
    Вы не можете отвечать на сообщения
    Вы не можете редактировать свои сообщения
    Вы не можете удалять свои сообщения
    Вы не можете голосовать в опросах
    Вы не можете прикреплять файлы к сообщениям
    Вы можете скачивать файлы
    Пятница 13-е / Friday the 13th [2009 г., Ужасы, HDRip-AVC, Дубляж BD CEE] [Theatrical Cut] смотреть онлайн, скачать торрент picoco.icu