Ссылка на приватное зеркало нашего сайта всего за 1$. Внимание количество ограничено!!!

2 сезон

iTunes

1 сезон

1

2 сезон

2 сезон

iTunes

1 сезон

RePack

30

Новинка

ВАЖНО

ИГРА 18+

pack

RePack

MK11
pack

Забери бонус

RePack

jed

!!Акция!!

Alien_Rage

RePack

fifa19

RePack

Assassins Creed: Odyssey

RePack

NEED FOR SPEED™ PAYBACK

4 сезон

9 сезон

Бесстыжие 9 сезон

Все сериалы

все сериалы на PB.wtf

RePack

FAR CRY 5
  

Лемони Сникет: 33 несчастья / A Series of Unfortunate Events / Сезон: 2 / Серии: 1-10 из 10 (Бэрри Зонненфельд, Марк Палански, Бо Уэлш) [2018, Драма, приключения, WEB-DLRip] MVO [NewStudio] pb.wtf

Лемони Сникет: 33 несчастья через торрент pb.wtf

Размер: 5.38 GB | Добавлен: 2 года 7 мес. назад | Торрент скачан:24 раза
Скачать  

10-04-2018 08:13 Лемони Сникет: 33 несчастья Скачать торрент  

Лемони Сникет: 33 несчастья / A Series of Unfortunate Events
Год выпуска: 2018
Страна: США
Жанр: Драма, приключения
Продолжительность: ~00:50:00
Перевод: Профессиональный многоголосый |
Субтитры: отсутствуют

Режиссер: Бэрри Зонненфельд, Марк Палански, Бо Уэлш

rating

В ролях:

Нил Патрик Харрис, Усман Элли, Мэттью Кардаропле, Джон ДеСантис, Луи Хайнс, Малина Вайсман, Сара Каннинг, Патрик Китинг, Кэтрин О`Хара, Элфри Вудард

Описание:

Трое детей семьи Бодлер — Вайолет, Клаус и Солнышко — после страшного пожара остаются сиротами и оказываются на попечении графа Олафа, который всеми силами хочет захватить наследство детей. Дети всячески пытаются объяснить всем вокруг, что граф Олаф не просто плохой опекун, но и ещё пытается убить их, чтобы разбогатеть; разумеется, никто детей не слушает. И только из-за непонимания взрослых сироты попадают в разные злоключения.

Качество: WEB-DLRip
Формат: AVI

Видео: XviD, ~ 1400 Кбит/с, 720x368
Аудио#1: Русский (MP3, 2 ch, 128 Кбит/с)
Аудио#2: английский (MP3, 2 ch, 128 Кбит/с)
скриншот   скриншот   скриншот   скриншот  

Общее
Полное имя : E:\торреннты\A.Series.of.Unfortunate.Events.s02.WEBDLRip.NewStudio.TV\A.Series.of.Unfortunate.Events.s02e01.WEBDLRip.NewStudio.TV.avi
Формат : AVI
Формат/Информация : Audio Video Interleave
Размер файла : 561 Мбайт
Продолжительность : 47 м. 4 с.
Общий поток : 1667 Кбит/сек
Программа кодирования : VirtualDubMod 1.5.10.2 (build 2540/release)
Библиотека кодирования : VirtualDubMod build 2540/release

Видео
Идентификатор : 0
Формат : MPEG-4 Visual
Профиль формата : Advanced Simple@L5
Настройки формата : BVOP2 / QPel
Параметр BVOP формата : 2
Параметр QPel формата : Да
Параметр GMC формата : Без точки перехода
Параметр матрицы формата : Default (MPEG)
Режим смешивания : Сжатый битовый поток
Идентификатор кодека : XVID
Идентификатор кодека/Подсказка : XviD
Продолжительность : 47 м. 4 с.
Битрейт : 1397 Кбит/сек
Ширина : 720 пикселей
Высота : 368 пикселей
Соотношение сторон : 1,957
Частота кадров : 23,976 (24000/1001) кадра/сек
Цветовое пространство : YUV
Субдискретизация насыщенности : 4:2:0
Битовая глубина : 8 бит
Тип развёртки : Прогрессивная
Метод сжатия : С потерями
Бит/(Пиксели*Кадры) : 0.220
Размер потока : 471 Мбайт (84%)
Библиотека кодирования : XviD 67

Аудио #1
Идентификатор : 1
Формат : MPEG Audio
Версия формата : Version 1
Профиль формата : Layer 3
Настройки формата : Joint stereo / MS Stereo
Идентификатор кодека : 55
Идентификатор кодека/Подсказка : MP3
Продолжительность : 47 м. 4 с.
Вид битрейта : Постоянный
Битрейт : 128 Кбит/сек
Каналы : 2 канала
Частота : 48,0 КГц
Метод сжатия : С потерями
Размер потока : 43,1 Мбайт (8%)
Выравнивание : Соединение по промежуткам
Продолжительность промежутка : 42 мс. (1,00 видеокадр)
Время предзагрузки промежутка : 504 мс.

Аудио #2
Идентификатор : 2
Формат : MPEG Audio
Версия формата : Version 1
Профиль формата : Layer 3
Настройки формата : Joint stereo
Идентификатор кодека : 55
Идентификатор кодека/Подсказка : MP3
Продолжительность : 47 м. 4 с.
Вид битрейта : Постоянный
Битрейт : 128 Кбит/сек
Каналы : 2 канала
Частота : 48,0 КГц
Частота кадров : 41,667 кадра/сек (1152 SPF)
Метод сжатия : С потерями
Размер потока : 43,1 Мбайт (8%)
Выравнивание : Соединение по промежуткам
Продолжительность промежутка : 42 мс. (1,00 видеокадр)
Время предзагрузки промежутка : 504 мс.
Библиотека кодирования : LAME3.99r
Настройки программы : -m j -V 4 -q 2 -lowpass 17 -b 128

Внимание! Раздача ведётся путём добавления новых серий; при каждом добавлении создаётся новый торрент. Чтобы начать докачку новой серии, пользователям необходимо сделать следующее:
(1) остановить скачивание,
(2) удалить старый торрент у себя из клиента (старые серии удалять не надо),
(3) скачать новый торрент и запустить его у себя в клиенте вместо старого, при этом указать клиенту путь в старую папку куда и должно происходить скачивание новых серий.
Ваш клиент при этом должен произвести хеширование (проверку) старой папки (если не производит сам - помогите ему сделать это), и будет докачивать только те серии которых у вас ещё нет. Старые серии при этом не удаляются, а продолжают раздаваться!
Eсли вы уже удалили старые серии, то предотвратить повторную закачку старых серий можно, отжав галочку в соответствующих местах при запуске нового торрента. По возможности, желательно не удалять старые серии как можно дольше чтобы релизёр не столько продолжал раздавать старые серии, а смог сконцентрироваться на новых.
pb.wtf



Скачать Лемони Сникет: 33 несчастья через торрент http://pic1.kartinco.top/images/11/snvaa.jpg Скачать фильм Лемони Сникет: 33 несчастья через торрент бесплантно в хорошем качестве Описание: Трое детей семьи Бодлер — Вайолет, Клаус и Солнышко — после страшного пожара остаются сиротами и оказываются на попечении графа ... 10 10 3
Торрент: Зарегистрирован [2018-04-25 12:07] · скачан: 24 раз
Статус: √ проверено
Размер: 5.38 GB
Как cкачать? Как скачать Лемони Сникет: 33 несчастья через торрент | qTorrent

% Раздел Тема Автор DL S | L
Зарубежные сериалы [ 27.83 GB ] Лемони Сникет: 33 несчастья / A Series of Unfortunate Events / Сезон: 2 / Серия: 1-7 из 7 [2019 WEBRip 1080p] [MVO] killermax2013 Скачать
1 | 0
Зарубежные сериалы [ 5.41 GB ] Лемони Сникет: 33 несчастья / A Series of Unfortunate Events / Сезон: 2 / Серия: 1-10 из 10 [2018 WEBRip] [MVO] killermax2013 Скачать
1 | 0
Зарубежные сериалы [ 15.38 GB ] Лемони Сникет: 33 несчастья / A Series of Unfortunate Events / Сезон: 2 / Серия: 1-10 из 10 [2018 WEBRip 1080p] [MVO] killermax2013 Скачать
1 | 0
Зарубежные сериалы [ 8.91 GB ] Лемони Сникет: 33 несчастья / A Series of Unfortunate Events / Сезон: 2 / Серия: 1-10 из 10 [2018 WEBRip 1080p] [MVO] killermax2013 Скачать
1 | 0
Зарубежные сериалы [ 9.55 GB ] Лемони Сникет: 33 несчастья / A Series of Unfortunate Events / Сезон: 2 / Серии 1-10 из 10 [2018 WEBRip 720p] [MVO] killermax2013 Скачать
1 | 0
Зарубежные сериалы [ 16.6 GB ] Лемони Сникет: 33 несчастья / A Series of Unfortunate Events / Сезон: 2 / Серии: 1-10 из 10 [2018 WEBRip 1080p] MVO [Good People] bober100 Скачать
1 | 0
Зарубежные сериалы [ 5.84 GB ] Лемони Сникет: 33 несчастья / A Series of Unfortunate Events / Сезон: 2 / Серии: 1-10 из 10 [2018 WEBRip] MVO [Good People] bober100 Скачать
1 | 0

28-11-2019 20:33  

Отключить всю рекламу на сайте

    Дорогой пользователь! Огромная просьба, поблагодарите релизера, оцените раздачу и оставьте свои комментарий, если Вы скачали Лемони Сникет: 33 несчастья через торрент бесплатно! Внесите свою лепту в развитие PiratBit!
    Комментировать посты могут только пользователи прошедшие не сложную регистрацию
    Показать сообщения:    

    Лемони Сникет: 33 несчастья через торрент
    Скачать бесплатно Лемони Сникет: 33 несчастья
    Лемони Сникет: 33 несчастья скачать торрент
    Лемони Сникет: 33 несчастья смотреть онлайн
    Cкачать фильм Лемони Сникет: 33 несчастья бесплатно
    Лемони Сникет: 33 несчастья скачать торрент в хорошем качестве
    Лемони Сникет: 33 несчастья смотреть онлайн бесплатно в хорошем качестве


    Вы не можете начинать темы
    Вы не можете отвечать на сообщения
    Вы не можете редактировать свои сообщения
    Вы не можете удалять свои сообщения
    Вы не можете голосовать в опросах
    Вы не можете прикреплять файлы к сообщениям
    Вы можете скачивать файлы