Ссылка на приватное зеркало нашего сайта всего за 1$. Внимание количество ограничено!!!

2 сезон

iTunes

1 сезон

1

2 сезон

2 сезон

iTunes

1 сезон

RePack

30

Ultimate

ВАЖНО

ИГРА 18+

pack

RePack

MK11
pack

Забери бонус

RePack

jed

!!Акция!!

Alien_Rage

RePack

fifa19

RePack

Assassins Creed: Odyssey

RePack

NEED FOR SPEED™ PAYBACK

4 сезон

9 сезон

Бесстыжие 9 сезон

Все сериалы

все сериалы на PB.wtf

RePack

FAR CRY 5
  

Механик / The Mechanic (Саймон Уэст) [2011 г., Боевик, Триллер, Криминал, HDRip-AVC, Дубляж] pb.wtf

Механик через торрент pb.wtf

Размер: 2.47 GB | Добавлен: 2 года 7 мес. назад | Торрент скачан:17 раз
Скачать  

10-04-2018 14:41 Механик Скачать торрент  

Механик /
The Mechanic
Год выпуска: 2011
Страна: США
Жанр: Боевик, Триллер, Криминал
Продолжительность: 01:32:45
Перевод: Дубляж

Режиссер: Саймон Уэст

Премьера в мире: 21 января 2011

rating

В ролях: Джейсон Стэйтем, Бен Фостер, Тони Голдуин, Дональд Сазерленд, Джефф Чейз, Мини Анден, Джеймс Логан, Эдди Дж. Фернандез, Джошуа Бриджуотер, Джон МакКоннелл и др.

Описание: Артур Бишоп — Механик, высокопрофессиональный безукоризненный киллер, который всегда работает по правилам — чисто и без следов. Такая работа требует полного самообладания и беспристрастности, и в своём деле ему нет равных. Бишоп всегда работал один, но ему пришлось стать наставником молодого и отчаянного Стива. Методичный профессионал и импульсивный ученик теперь на пару устраняют проблемы, но рано или поздно они сойдутся в смертельной схватке.

Качество: HDRip-AVC
Формат: MKV
Видео кодек: H.264
Аудио кодек: AC3
Видео: AVC/H.264, 1024х426 (2,40:1), ~3425 kbps, 0.327 bit/pixel
Аудио#1 Русский: AC3, 6 ch, 384 kbps - Дубляж
Релиз от: winchester00100010
x264 [info]: profile High, level 4.1
x264 [info]: frame I:1159 Avg QP:16.70 size: 77713
x264 [info]: frame P:33426 Avg QP:19.31 size: 29843
x264 [info]: frame B:98831 Avg QP:21.93 size: 13097

Общее
Уникальный идентификатор : 236179114674071722940927621966123714503 (0xB1AE7163232A6A3A87123A4CEA1747C7)
Полное имя : E:\Торрент файлы раздач вместе с фильмами\The.Mechanic.2011.HDRip-AVC.mkv
Формат : Matroska
Версия формата : Version 2
Размер файла : 2,47 Гбайт
Продолжительность : 1 ч. 32 м.
Общий поток : 3810 Кбит/сек
Дата кодирования : UTC 2018-04-10 14:04:22
Программа кодирования : mkvmerge v5.8.0 ('No Sleep / Pillow') built on Sep 2 2012 15:37:04
Библиотека кодирования : libebml v1.2.3 + libmatroska v1.3.0

Видео
Идентификатор : 1
Формат : AVC
Формат/Информация : Advanced Video Codec
Профиль формата : High@L4.1
Настройки формата : CABAC / 12 Ref Frames
Параметр CABAC формата : Да
Параметр RefFrames формата : 12 кадров
Идентификатор кодека : V_MPEG4/ISO/AVC
Продолжительность : 1 ч. 32 м.
Битрейт : 3425 Кбит/сек
Ширина : 1024 пикселя
Высота : 426 пикселей
Соотношение сторон : 2,40:1
Режим частоты кадров : Постоянный
Частота кадров : 23,976 (24000/1001) кадра/сек
Цветовое пространство : YUV
Субдискретизация насыщенности : 4:2:0
Битовая глубина : 8 бит
Тип развёртки : Прогрессивная
Бит/(Пиксели*Кадры) : 0.327
Размер потока : 2,17 Гбайт (88%)
Библиотека кодирования : x264 core 155 r2901 7d0ff22
Настройки программы : cabac=1 / ref=12 / deblock=1:-3:-3 / analyse=0x3:0x113 / me=umh / subme=11 / psy=1 / psy_rd=1.00:0.15 / mixed_ref=1 / me_range=64 / chroma_me=1 / trellis=2 / 8x8dct=1 / cqm=0 / deadzone=21,11 / fast_pskip=0 / chroma_qp_offset=-3 / threads=12 / lookahead_threads=3 / sliced_threads=0 / nr=0 / decimate=0 / interlaced=0 / bluray_compat=0 / constrained_intra=0 / bframes=10 / b_pyramid=2 / b_adapt=2 / b_bias=0 / direct=3 / weightb=1 / open_gop=0 / weightp=2 / keyint=240 / keyint_min=23 / scenecut=40 / intra_refresh=0 / rc_lookahead=40 / rc=2pass / mbtree=0 / bitrate=3425 / ratetol=1.0 / qcomp=0.60 / qpmin=0 / qpmax=69 / qpstep=4 / cplxblur=20.0 / qblur=0.5 / vbv_maxrate=14000 / vbv_bufsize=14000 / nal_hrd=none / filler=0 / ip_ratio=1.40 / pb_ratio=1.30 / aq=1:0.80
Default : Да
Forced : Нет
Statistics Tags Issue : mkvmerge v21.0.0 ('Tardigrades Will Inherit The Earth') 64-bit 2018-04-10 13:30:39 / mkvmerge v5.8.0 ('No Sleep / Pillow') built on Sep 2 2012 15:37:04 2018-04-10 14:04:22
FromStats_BitRate : 3424509
FromStats_Duration : 01:32:44.559000000
FromStats_FrameCount : 133416
FromStats_StreamSize : 2381985880

Аудио
Идентификатор : 2
Формат : AC-3
Формат/Информация : Audio Coding 3
Идентификатор кодека : A_AC3
Продолжительность : 1 ч. 32 м.
Вид битрейта : Постоянный
Битрейт : 384 Кбит/сек
Каналы : 6 каналов
Расположение каналов : Front: L C R, Side: L R, LFE
Частота : 48,0 КГц
Частота кадров : 31,250 кадров/сек (1536 SPF)
Битовая глубина : 16 бит
Метод сжатия : С потерями
Размер потока : 255 Мбайт (10%)
ServiceKind/String : Complete Main
Default : Да
Forced : Нет

pb.wtf



Скачать Механик через торрент https://c.radikal.ru/c11/1804/90/5c4bf211fc27.jpg Скачать фильм Механик через торрент бесплантно в хорошем качестве Описание: Артур Бишоп — Механик, высоко безукоризненный киллер, который всегда работает по правилам — чисто и без следов. ... 10 10 6
Info! Золотая раздача, скачанное не засчитывается.
Торрент: Зарегистрирован [2018-04-10 14:42] · скачан: 17 раз
Статус: √ проверено
Размер: 2.47 GB
Как cкачать? Как скачать Механик через торрент | qTorrent

% Раздел Тема Автор DL S | L
Фильмы с авторской озвучкой [ 1.45 GB ] Механик / The Mechanic [2011 HDRip] [US] [AVO] killermax2013 Скачать
1 | 0
Фильмы (HD 720p, 1080p) (48-60 fps) [ 3.33 GB ] Механик / The Mechanic [2010 BDRip 720p ] Sub slaventi-69 Скачать
1 | 0
Классика зарубежного кино [ 1.45 GB ] Механик / The Mechanic [1972 BDRip многоголосый] Russian Mafia Скачать
1 | 0
Фильмы (Blu-ray, BD-Remux, HDDVD) [ 24.78 GB ] Механик / The Mechanic [2011 BD-Remux + Оригинал] Бумер Скачать
1 | 0
Фильмы (Blu-ray, BD-Remux, HDDVD) [ 28.21 GB ] Механик / The Mechanic [1972 BD-Remux многоголосыйОдноголосыйУкраинскийОригинал] Anonymous Скачать
1 | 0
Видео (iPhone, iPod Touch) [ 450 MB ] Механик / The Mechanic [2010 DVDRip] azagoth_666 Скачать
1 | 0
Фильмы [HD 720p, 1080p] (Хороший звук DUB, MVO) [ 7.76 GB ] Механик / The Mechanic [2011 BDRip 1080p ] Бумер Скачать
1 | 0


Последний раз редактировалось: winchester00100010 (2018-04-10 15:08), всего редактировалось 1 раз

28-11-2019 20:33  

Отключить всю рекламу на сайте

10-04-2018 14:52 Механик Скачать торрент  

Всем приятного просмотра))pb.wtf



    Дорогой пользователь! Огромная просьба, поблагодарите релизера, оцените раздачу и оставьте свои комментарий, если Вы скачали Механик через торрент бесплатно! Внесите свою лепту в развитие PiratBit!
    Комментировать посты могут только пользователи прошедшие не сложную регистрацию
    Показать сообщения:    

    Механик через торрент
    Скачать бесплатно Механик
    Механик скачать торрент
    Механик смотреть онлайн
    Cкачать фильм Механик бесплатно
    Механик скачать торрент в хорошем качестве
    Механик смотреть онлайн бесплатно в хорошем качестве


    Вы не можете начинать темы
    Вы не можете отвечать на сообщения
    Вы не можете редактировать свои сообщения
    Вы не можете удалять свои сообщения
    Вы не можете голосовать в опросах
    Вы не можете прикреплять файлы к сообщениям
    Вы можете скачивать файлы