Ссылка на приватное зеркало нашего сайта всего за 1$. Внимание количество ограничено!!!

2 сезон

iTunes

1 сезон

1

2 сезон

2 сезон

iTunes

1 сезон

RePack

30

Ultimate

ВАЖНО

ИГРА 18+

pack

RePack

MK11
pack

Забери бонус

RePack

jed

!!Акция!!

Alien_Rage

RePack

fifa19

RePack

Assassins Creed: Odyssey

RePack

NEED FOR SPEED™ PAYBACK

4 сезон

9 сезон

Бесстыжие 9 сезон

Все сериалы

все сериалы на PB.wtf

RePack

FAR CRY 5
  

Живое / Life (Даниэль Эспиноса) [2017, ужасы, фантастика, триллер, BDRemux 1080p] DUB + 3xAVO pb.wtf

Живое через торрент pb.wtf

Размер: 28.35 GB | Добавлен: 2 года 7 мес. назад | Торрент скачан:36 раз
Скачать  

11-04-2018 06:16 Живое Скачать торрент  

Живое / Life«Умное. Сильное. Бездушное»
Год выпуска: 2017
Страна: США
Жанр: ужасы, фантастика, триллер
Продолжительность: 01:43:58
Перевод: Дублированный, авторский
Субтитры: Русские (forced, full), английские (full, SDH), украинские
Режиссер: Даниэль Эспиноса
В ролях:

Хироюки Санада (Sho Murakami), Райан Рейнольдс (Rory Adams), Ребекка Фергюсон (Miranda North), Джейк Джилленхол (David Jordan), Ольга Дыховичная (Ekaterina Golovkina), Эрион Бакаре (Hugh Derry), Хесус Дель Орден (Student 2), Аллен МакЛин (Student 1), Лейла Грейс (Student 3), Мари Гвелесиани (Student 4), Дэвид Мьюир (20 / 20 Anchor), Элизабет Варгас (20 / 20 Anchor)
Описание:
Группа исследователей с международного космического корабля обнаруживает жизнь на Марсе. Они еще не подозревают, какие события повлечет за собой их открытие.
Рейтинг:

MPAA: R - Лицам до 17 лет обязательно присутствие взрослого
Качество: BDRemux 1080p
Формат: MKV
Видео: MPEG-4 AVC, 24.9 Mбит/с, 1920x1080, 23.976 кадр/с
Аудио 1: Русский DTS-HD MA Audio 7.1 / 48 kHz / 2668 kbps - Дубляж (Sergesha)
Аудио 2: Русский AC3 / 5.1 / 48 kHz / 640 kbps - Дубляж
Аудио 3: Русский DTS-HD MA Audio 7.1 / 48 kHz / 2701 kbps - Авторский (Чадов)
Аудио 4: Русский DTS-HD MA Audio 7.1 / 48 kHz / 2694 kbps - Авторский (Дохалов)
Аудио 5: Русский DTS-HD MA Audio 7.1 / 48 kHz / 2704 kbps - Авторский (Есарев)
Аудио 6: Английский DTS-HD MA Audio 7.1 / 48 kHz / 2687 kbps - Оригинал
Навигация по главам: есть
Общее
Уникальный идентификатор : 247084836470432388073713977559703810506 (0xB9E2CEFC3B30EF6E8DAE91718DC2F1CA)
Полное имя : D:\РЕМУКС!!!!!\Живое.BDRemux.mkv
Формат : Matroska
Версия формата : Version 4 / Version 2
Размер файла : 28,4 Гбайт
Продолжительность : 1 ч. 43 м.
Режим общего битрейта : Переменный
Общий поток : 39,0 Мбит/сек
Название фильма : Живое.BDRemux.thx:SPOMOPS
Дата кодирования : UTC 2018-02-13 16:53:47
Программа кодирования : mkvmerge v8.3.0 ('Over the Horizon') 64bit
Библиотека кодирования : libebml v1.3.1 + libmatroska v1.4.2
Обложка : Yes
Attachments : cover.jpg

Видео
Идентификатор : 1
Формат : AVC
Формат/Информация : Advanced Video Codec
Профиль формата : High@L4.1
Настройки формата : CABAC / 2 Ref Frames
Параметр CABAC формата : Да
Параметр RefFrames формата : 2 кадра
Параметр GOP формата : M=1, N=10
Идентификатор кодека : V_MPEG4/ISO/AVC
Продолжительность : 1 ч. 43 м.
Вид битрейта : Переменный
Битрейт : 24,9 Мбит/сек
Ширина : 1920 пикселей
Высота : 1080 пикселей
Соотношение сторон : 16:9
Режим частоты кадров : Постоянный
Частота кадров : 23,976 (24000/1001) кадра/сек
Цветовое пространство : YUV
Субдискретизация насыщенности : 4:2:0
Битовая глубина : 8 бит
Тип развёртки : Прогрессивная
Бит/(Пиксели*Кадры) : 0.502
Размер потока : 18,1 Гбайт (64%)
Заголовок : MPEG-4 AVC, 24.9 Mбит/с, 1920x1080, 23.976 кадр/с
Язык : English
Default : Да
Forced : Нет

Аудио #1
Идентификатор : 2
Формат : DTS
Формат/Информация : Digital Theater Systems
Профиль формата : MA / Core
Идентификатор кодека : A_DTS
Продолжительность : 1 ч. 43 м.
Вид битрейта : Переменный / Постоянный
Битрейт : 2668 Кбит/сек / 1509 Кбит/сек
Каналы : 8 каналов / 6 каналов
Расположение каналов : Front: L C R, Side: L R, Back: L R, LFE / Front: L C R, Side: L R, LFE
Частота : 48,0 КГц
Частота кадров : 93,750 кадра/сек (512 SPF)
Битовая глубина : 16 бит
Метод сжатия : Без потерь / Lossy
Размер потока : 1,94 Гбайт (7%)
Заголовок : Русский DTS-HD MA - Дубляж
Язык : Russian
Default : Да
Forced : Нет

Аудио #2
Идентификатор : 3
Формат : AC-3
Формат/Информация : Audio Coding 3
Идентификатор кодека : A_AC3
Продолжительность : 1 ч. 43 м.
Вид битрейта : Постоянный
Битрейт : 640 Кбит/сек
Каналы : 6 каналов
Расположение каналов : Front: L C R, Side: L R, LFE
Частота : 48,0 КГц
Частота кадров : 31,250 кадров/сек (1536 SPF)
Битовая глубина : 16 бит
Метод сжатия : С потерями
Размер потока : 476 Мбайт (2%)
Заголовок : Русский АСЗ - Дубляж
Язык : Russian
ServiceKind/String : Complete Main
Default : Нет
Forced : Нет

Аудио #3
Идентификатор : 4
Формат : DTS
Формат/Информация : Digital Theater Systems
Профиль формата : MA / Core
Идентификатор кодека : A_DTS
Продолжительность : 1 ч. 43 м.
Вид битрейта : Переменный / Постоянный
Битрейт : 2701 Кбит/сек / 1509 Кбит/сек
Каналы : 8 каналов / 6 каналов
Расположение каналов : Front: L C R, Side: L R, Back: L R, LFE / Front: L C R, Side: L R, LFE
Частота : 48,0 КГц
Частота кадров : 93,750 кадра/сек (512 SPF)
Битовая глубина : 16 бит
Метод сжатия : Без потерь / Lossy
Размер потока : 1,96 Гбайт (7%)
Заголовок : Русский DTS-HD MA - АП Чадов
Язык : Russian
Default : Нет
Forced : Нет

Аудио #4
Идентификатор : 5
Формат : DTS
Формат/Информация : Digital Theater Systems
Профиль формата : MA / Core
Идентификатор кодека : A_DTS
Продолжительность : 1 ч. 43 м.
Вид битрейта : Переменный / Постоянный
Битрейт : 2694 Кбит/сек / 1509 Кбит/сек
Каналы : 8 каналов / 6 каналов
Расположение каналов : Front: L C R, Side: L R, Back: L R, LFE / Front: L C R, Side: L R, LFE
Частота : 48,0 КГц
Частота кадров : 93,750 кадра/сек (512 SPF)
Битовая глубина : 16 бит
Метод сжатия : Без потерь / Lossy
Размер потока : 1,96 Гбайт (7%)
Заголовок : Русский DTS-HD MA - АП Дохалов
Язык : Russian
Default : Нет
Forced : Нет

Аудио #5
Идентификатор : 6
Формат : DTS
Формат/Информация : Digital Theater Systems
Профиль формата : MA / Core
Идентификатор кодека : A_DTS
Продолжительность : 1 ч. 43 м.
Вид битрейта : Переменный / Постоянный
Битрейт : 2704 Кбит/сек / 1509 Кбит/сек
Каналы : 8 каналов / 6 каналов
Расположение каналов : Front: L C R, Side: L R, Back: L R, LFE / Front: L C R, Side: L R, LFE
Частота : 48,0 КГц
Частота кадров : 93,750 кадра/сек (512 SPF)
Битовая глубина : 16 бит
Метод сжатия : Без потерь / Lossy
Размер потока : 1,96 Гбайт (7%)
Заголовок : Русский DTS-HD MA - АП Есарев
Язык : Russian
Default : Нет
Forced : Нет

Аудио #6
Идентификатор : 7
Формат : DTS
Формат/Информация : Digital Theater Systems
Профиль формата : MA / Core
Идентификатор кодека : A_DTS
Продолжительность : 1 ч. 43 м.
Вид битрейта : Переменный / Постоянный
Битрейт : 2687 Кбит/сек / 1509 Кбит/сек
Каналы : 8 каналов / 6 каналов
Расположение каналов : Front: L C R, Side: L R, Back: L R, LFE / Front: L C R, Side: L R, LFE
Частота : 48,0 КГц
Частота кадров : 93,750 кадра/сек (512 SPF)
Битовая глубина : 16 бит
Метод сжатия : Без потерь / Lossy
Размер потока : 1,95 Гбайт (7%)
Заголовок : Английский DTS-HD MA - Оригинал
Язык : English
Default : Нет
Forced : Нет

Текст #1
Идентификатор : 8
Формат : UTF-8
Идентификатор кодека : S_TEXT/UTF8
Идентификатор кодека/Информация : UTF-8 Plain Text
Продолжительность : 1 ч. 41 м.
Битрейт : 2 бит/сек
ElementCount : 38
Размер потока : 1,50 Кбайт (0%)
Заголовок : Русские форс.
Язык : Russian
Default : Да
Forced : Нет

Текст #2
Идентификатор : 9
Формат : UTF-8
Идентификатор кодека : S_TEXT/UTF8
Идентификатор кодека/Информация : UTF-8 Plain Text
Продолжительность : 1 ч. 41 м.
Битрейт : 73 бит/сек
ElementCount : 1128
Размер потока : 54,5 Кбайт (0%)
Заголовок : Русские
Язык : Russian
Default : Нет
Forced : Нет

Текст #3
Идентификатор : 10
Формат : UTF-8
Идентификатор кодека : S_TEXT/UTF8
Идентификатор кодека/Информация : UTF-8 Plain Text
Продолжительность : 1 ч. 31 м.
Битрейт : 46 бит/сек
ElementCount : 1101
Размер потока : 31,2 Кбайт (0%)
Заголовок : Английские
Язык : English
Default : Нет
Forced : Нет

Текст #4
Идентификатор : 11
Формат : UTF-8
Идентификатор кодека : S_TEXT/UTF8
Идентификатор кодека/Информация : UTF-8 Plain Text
Продолжительность : 1 ч. 35 м.
Битрейт : 60 бит/сек
ElementCount : 1437
Размер потока : 42,3 Кбайт (0%)
Заголовок : Английские SDH
Язык : English
Default : Нет
Forced : Нет

Текст #5
Идентификатор : 12
Формат : UTF-8
Идентификатор кодека : S_TEXT/UTF8
Идентификатор кодека/Информация : UTF-8 Plain Text
Продолжительность : 1 ч. 41 м.
Битрейт : 69 бит/сек
ElementCount : 1126
Размер потока : 51,3 Кбайт (0%)
Заголовок : Украинские
Язык : Ukrainian
Default : Нет
Forced : Нет

Меню
00:00:00.000 : en:00:00:00.000
00:09:32.864 : en:00:09:32.864
00:13:13.084 : en:00:13:13.084
00:15:36.894 : en:00:15:36.894
00:19:35.341 : en:00:19:35.341
00:24:57.454 : en:00:24:57.454
00:34:36.992 : en:00:34:36.992
00:40:45.109 : en:00:40:45.109
00:43:59.303 : en:00:43:59.303
00:52:21.805 : en:00:52:21.805
00:58:33.927 : en:00:58:33.927
01:06:37.785 : en:01:06:37.785
01:11:43.257 : en:01:11:43.257
01:17:50.875 : en:01:17:50.875
01:22:39.621 : en:01:22:39.621
01:28:34.309 : en:01:28:34.309
Дублированная дорожка DTS-HD Master Audio 7.1 выполнена из оригинальной DTS-HD Master Audio 7.1 и дублированной AC-3 Audio 5.1 дорожек путём замены всех участков с оригинальной речью, отголосками и эхом на аналогичные с дублированной дорожки во всех каналах.
pb.wtf
K-Lexx- писал(а):

В лицензии https://pb.wtf/topic/251116/ русская аудиодорожка AC3 / 5.1 / 48 kHz / 640 kbps
В раздаче DTS-HD MA Audio 7.1 / 48 kHz / 2668 kbps - Дубляж (Sergesha) [hand made].
Статус раздачи # сомнительно.



Скачать Живое через торрент http://i105.fastpic.ru/big/2018/0411/90/cc4616b117acc78ff0f0ba9b2008e890.png Скачать фильм Живое через торрент бесплантно в хорошем качестве Описание: Группа исследователей с международного космического корабля обнаруживает жизнь на Марсе. Они еще не подозревают, какие события ... 10 10 4
Торрент: Зарегистрирован [2018-04-11 06:16] · скачан: 36 раз
Статус: # сомнительно
Размер: 28.35 GB
Как cкачать? Как скачать Живое через торрент | qTorrent

% Раздел Тема Автор DL S | L
Ultra HD (UHD: 2K, 4K, 8K) — видео сверхвысокой чёткости [ 57.15 GB ] Живое / Life [2017 UHD BDRip 2160p] DUB + 2xAVO sheker187 Скачать
1 | 0
Ultra HD (UHD: 2K, 4K, 8K) — видео сверхвысокой чёткости [ 46.57 GB ] Живое / Life [2017 UHD BDRemux 2160p] DUB+3xAVO [] bober100 Скачать
1 | 0
Фильмы (Blu-ray, BD-Remux, HDDVD) [ 24.45 GB ] Живое / Life [2017 BD Remux 1080p] [] DUB+2xAVO bober100 Скачать
1 | 0

28-11-2019 20:33  

Отключить всю рекламу на сайте

    Дорогой пользователь! Огромная просьба, поблагодарите релизера, оцените раздачу и оставьте свои комментарий, если Вы скачали Живое через торрент бесплатно! Внесите свою лепту в развитие PiratBit!
    Комментировать посты могут только пользователи прошедшие не сложную регистрацию
    Показать сообщения:    

    Живое через торрент
    Скачать бесплатно Живое
    Живое скачать торрент
    Живое смотреть онлайн
    Cкачать фильм Живое бесплатно
    Живое скачать торрент в хорошем качестве
    Живое смотреть онлайн бесплатно в хорошем качестве


    Вы не можете начинать темы
    Вы не можете отвечать на сообщения
    Вы не можете редактировать свои сообщения
    Вы не можете удалять свои сообщения
    Вы не можете голосовать в опросах
    Вы не можете прикреплять файлы к сообщениям
    Вы можете скачивать файлы