новый адрес
Ссылка на приватное зеркало всего за 1$. Внимание количество ограничено!!!

iTunes

1+1

iTunes

мы

iTunes

1

iTunes

Чернобыль

iTunes

Ральф против интернета

Лицензия

ПШазам

Лицензия

Оно 2

Лицензия

30
pack

Вам бонус

ВАЖНО

!!Акция!!

Alien_RageХит недели

RePack

Resident Evil 21

ИГРА 18+

pack

RePack

jed

!!Акция!!

Alien_Rage

RePack

fifa19

RePack

Assassins Creed: Odyssey

RePack

NEED FOR SPEED™ PAYBACK

3 сезон

9 сезон

Бесстыжие 9 сезон

Все сериалы

все сериалы на PB.wtf

RePack

FAR CRY 5
Ребята, катастрофически не хватает 1900р. для оплаты серверов за Октябрь (всвязи с блокировками трафик упал в 3 раза), 1-2р., выручайте.
  

Ровесник века (Самсон Самсонов) [1960, СССР, драма, биография, VHSRip от AVP Studio] pb.wtf

Ровесник века через торрент pb.wtf

Размер: 745 MB | Добавлен: 1 год 7 мес. назад | Торрент скачан:12 раз
Скачать  

11-04-2018 08:01 Ровесник века Скачать торрент  

Ровесник века
Страна: СССР
Производство: Мосфильм

Жанр: драма, биография
Год выпуска: 1960
Продолжительность: 01:30:32

Перевод: Не требуется
Cубтитры: нет
Оригинальная аудиодорожка: русский

Режиссер: Самсон Самсонов

В ролях:
Николай Лебедев, Владимир Соловьёв, Геннадий Юдин, Юрий Саранцев, Маргарита Володина, Людмила Шагалова, Пётр Савин, Людмила Пирогова, Борис Терентьев, Спартак Хатиашвили, Валерий Безручко, Григорий Шпигель, Кахи Кавсадзе...
Об актёрах подробней

Описание:
О судьбе коммуниста, который прошел длинный и сложный жизненный путь от простого рабочего до директора крупнейшего автомобильного завода.
Прототипом главного героя послужил образ И. А. Лихачёва (1896-1956)- директора Московского автомобильного завода (ЗИЛ).

Исходник: S-VHS
Качество видео: VHSRip
Формат видео: AVI

Видео: 720x336 (2,143:1), 25,000 кадров/сек, XviD ~ 949 kbps avg, 0.157 bit/pixel
Аудио: 48 kHz, Dolby Digital AC3 2.0, 192 kbps

Раздача от:
Общее
Полное имя : Rovesnik.veka.1960.VHSRip_[New-team]_by_AVP_Studio.avi
Формат : AVI
Формат/Информация : Audio Video Interleave
Размер файла : 745 Мбайт
Продолжительность : 1 ч. 30 м.
Общий поток : 1151 Кбит/сек
Программа кодирования : VirtualDubMod 1.5.10.3 | www.virtualdub-fr.org || (build 2550/release)
Библиотека кодирования : VirtualDubMod build 2550/release

Видео
Идентификатор : 0
Формат : MPEG-4 Visual
Профиль формата : Advanced Simple@L5
Настройки формата : BVOP1 / Custom Matrix
Параметр BVOP формата : 1
Параметр QPel формата : Нет
Параметр GMC формата : Без точки перехода
Параметр матрицы формата : Выборочная
Идентификатор кодека : XVID
Идентификатор кодека/Подсказка : XviD
Продолжительность : 1 ч. 30 м.
Битрейт : 949 Кбит/сек
Ширина : 720 пикселей
Высота : 336 пикселей
Соотношение сторон : 2,143
Частота кадров : 25,000 кадров/сек
Цветовое пространство : YUV
Субдискретизация насыщенности : 4:2:0
Битовая глубина : 8 бит
Тип развёртки : Прогрессивная
Метод сжатия : С потерями
Бит/(Пиксели*Кадры) : 0.157
Размер потока : 615 Мбайт (82%)
Библиотека кодирования : XviD 73

Аудио
Идентификатор : 1
Формат : AC-3
Формат/Информация : Audio Coding 3
Идентификатор кодека : 2000
Продолжительность : 1 ч. 30 м.
Вид битрейта : Постоянный
Битрейт : 192 Кбит/сек
Каналы : 2 канала
Расположение каналов : Front: L R
Частота : 48,0 КГц
Частота кадров : 31,250 кадров/сек (1536 SPF)
Битовая глубина : 16 бит
Метод сжатия : С потерями
Размер потока : 124 Мбайт (17%)
Выравнивание : Разделение по промежуткам
Продолжительность промежутка : 40 мс. (1,00 видеокадр)
Время предзагрузки промежутка : 500 мс
pb.wtf



Скачать Ровесник века через торрент http://i2.imageban.ru/out/2018/04/11/ea6ca55249495b1d88a759f1acb5d01f.png Скачать фильм Ровесник века через торрент бесплантно в хорошем качестве Описание:О судьбе коммуниста, который прошел длинный и сложный жизненный путь от простого рабочего до директора крупнейшего автомобильного ... 5 10 1
Info! Золотая раздача, скачанное не засчитывается.
Торрент: Зарегистрирован [2018-04-11 08:01] · скачан: 12 раз
Статус: √ проверено
Размер: 745 MB
Как cкачать? Как скачать Ровесник века через торрент | qTorrent

% Раздел Тема Автор DL S | L
Кино СССР [ 1.09 GB ] Ровесник века [1960 СССР биография VHSRip-AVC от AVP Studio] AVP Studio Скачать
1 | 0
    Дорогой пользователь! Огромная просьба, поблагодарите релизера, оцените раздачу и оставьте свои комментарий, если Вы скачали Ровесник века через торрент бесплатно! Внесите свою лепту в развитие PiratBit!
    Комментировать посты могут только пользователи прошедшие не сложную регистрацию
    Показать сообщения:    

    Ровесник века через торрент
    Скачать бесплатно Ровесник века
    Ровесник века скачать торрент
    Ровесник века смотреть онлайн
    Cкачать фильм Ровесник века бесплатно
    Ровесник века скачать торрент в хорошем качестве
    Ровесник века смотреть онлайн бесплатно в хорошем качестве


    Вы не можете начинать темы
    Вы не можете отвечать на сообщения
    Вы не можете редактировать свои сообщения
    Вы не можете удалять свои сообщения
    Вы не можете голосовать в опросах
    Вы не можете прикреплять файлы к сообщениям
    Вы можете скачивать файлы