MEGA SALE -50% FORZA HORIZON 4 ULTIMATE+ВСЕ DLC+ОНЛАЙН всего за 599р. 299 руб. (супер цена). Внимание количество ограничено!!!

iTunes

1+1

iTunes

мы

iTunes

1

iTunes

Чернобыль

iTunes

Ральф против интернета

Лицензия

ПШазам

Лицензия

Игра престолов

Лицензия

30
pack

ВАЖНО

!!Акция!!

Alien_RageХит недели

RePack

Resident Evil 21

ИГРА 18+

pack

RePack

Metro:Exodus

!!Акция!!

Alien_Rage

RePack

fifa19

RePack

Assassins Creed: Odyssey

RePack

NEED FOR SPEED™ PAYBACK

3 сезон

9 сезон

Бесстыжие 9 сезон

Все сериалы

все сериалы на PB.wtf

RePack

FAR CRY 5
Ребята, катастрофически не хватает 7730р. для оплаты серверов за АВГУСТ (всвязи с блокировками трафик упал в 3 раза), 1-2р., выручайте.
  

Знамение / Knowing (Алекс Пройас) [2009, фантастика, триллер, драма, UHD BDRemux 2160p] DUB + MVO + 2xAVO pb.wtf

Знамение через торрент pb.wtf

Размер: 52.04 GB | Добавлен: 1 год 5 мес. назад | Торрент скачан:18 раз
Скачать  

11-04-2018 18:08 Знамение Скачать торрент  

Знамение / Knowing«Что будет, когда закончатся числа?»
Год выпуска: 2009
Страна: США, Великобритания, Австралия
Жанр: фантастика, триллер, драма, детектив
Продолжительность: 02:01:29
Перевод: Дублированный, профессиональный многоголосый, авторский
Субтитры: Русские, английские
Режиссер: Алекс Пройас
В ролях:

Николас Кейдж (John Koestler), Роуз Бирн (Diana), Чандлер Кентербери (Caleb Koestler), Лара Робинсон (Abby), Бен Мендельсон (Phil Beckman), Д.Г. Малоуни (The Stranger), Надя Таунсенд (Grace), Алан Хопгуд (Reverend Koestler), Эдриэнн Пикеринг (Allison), Джошуа Лонг (Younger Caleb), Даниэль Картер (Miss Taylor (1959)), Алетеа МакГрат (Miss Taylor (2009))
Описание:
После вскрытия «временной капсулы», в которую в 1959 группа школьников поместила рисунки со своим видением будущего, в руки к профессору Джону Кестлеру попадает загадочный лист, сверху до низу исписанный цифрами. В поисках расшифровки содержания листа, Кестлер устанавливает загадочную связь между цифрами и крупнейшими мировыми бедствиями, произошедшими на Земле за последние 50 лет. Если верить цифрам, трагедий не избежать и в будущем, только теперь Кестлер знает, когда их ожидать. Но есть ли возможность их предотвратить? И самое главное: что будет, когда цепочка цифр кончится?
Рейтинг:

MPAA: PG-13 - Детям до 13 лет просмотр не желателен
Качество: UHD BDRemux 2160p
Формат: MKV
Видео: HEVC, 3840x2160 (16:9), 23.976 fps, 40.9 Mb/s (0.206 bit/pixel)
Аудио #1: TrueHD, 48.0 kHz, 6 ch, 3 481 kb/s, VBR |Дубляж|
Аудио #2: AC-3, 48.0 kHz, 6 ch, 448 kb/s, CBR |Киномания|
Аудио #3: DTS MA / Core, 48.0 kHz, 6 ch, 3 637 kb/s / 1 509 kb/s, VBR / CBR |А.Гаврилов|
Аудио #4: DTS MA / Core, 48.0 kHz, 6 ch, 3 577 kb/s / 1 509 kb/s, VBR / CBR |Ю.Сербин|
Аудио #5: AC-3, 48.0 kHz, 2 ch, 192 kb/s, CBR |1+1 / Воля Кино HD|
Аудио #6: TrueHD TrueHD+Atmos / TrueHD, / 48.0 kHz, Object Based / 8 ch, 4 498 kb/s, VBR |Original|
Аудио #7: DTS MA / Core, 48.0 kHz, 6 ch, 3 840 kb/s / 1 509 kb/s, VBR / CBR |Original|
Аудио #8: AC-3, 48.0 kHz, 6 ch, 448 kb/s, CBR |Original|
Аудио #9: AC-3, 48.0 kHz, 2 ch, 192 kb/s, CBR |Commentary|
Навигация по главам: есть
Общее
Уникальный идентификатор : 248401620449538122302081831522879679815 (0xBAE06972A8B5A134FAF48D45F6E42D47)
Полное имя : Knowing.2009.UHD.BDRemux.2160p.HEVC.HDR.IVA(4xRUS.UKR.ENG).ExKinoRay.mkv
Формат : Matroska
Версия формата : Version 4 / Version 2
Размер файла : 52,0 Гбайт
Продолжительность : 2 ч. 1 м.
Режим общего битрейта : Переменный
Общий поток : 61,3 Мбит/сек
Название фильма : Знамение / Knowing ( 2009 ) | BDRemux | HDR, 4K | IVA(4xRUS.UKR.ENG) | ExKinoRay
Дата кодирования : UTC 2018-04-11 14:53:06
Программа кодирования : mkvmerge v22.0.0 ('At The End Of The World') 64-bit
Библиотека кодирования : libebml v1.3.5 + libmatroska v1.4.8
Обложка : Yes

Видео
Идентификатор : 1
Формат : HEVC
Формат/Информация : High Efficiency Video Coding
Коммерческое название : HDR10
Профиль формата : Main 10@L5.1@High
Идентификатор кодека : V_MPEGH/ISO/HEVC
Продолжительность : 2 ч. 1 м.
Битрейт : 40,9 Мбит/сек
Ширина : 3840 пикселей
Высота : 2160 пикселей
Соотношение сторон : 16:9
Режим частоты кадров : Постоянный
Частота кадров : 23,976 (24000/1001) кадра/сек
Цветовое пространство : YUV
Субдискретизация насыщенности : 4:2:0 (Type 2)
Битовая глубина : 10 бит
Бит/(Пиксели*Кадры) : 0.206
Размер потока : 34,7 Гбайт (67%)
Заголовок : Knowing.2009.UHD.BDRemux.2160p.HEVC.HDR
Язык : English
Default : Да
Forced : Нет
Цветовой диапазон : Limited
Основные цвета : BT.2020
Характеристики трансфера : PQ
Коэффициенты матрицы : BT.2020 non-constant
MasteringDisplay_Luminance : min: 0.0050 cd/m2, max: 1000 cd/m2
MaxCLL : 1000 cd/m2
MaxFALL : 985 cd/m2

Аудио #1
Идентификатор : 2
Формат : TrueHD
Идентификатор кодека : A_TRUEHD
Продолжительность : 2 ч. 1 м.
Вид битрейта : Переменный
Битрейт : 3481 Кбит/сек
Максимальный битрейт : 5424 Кбит/сек
Каналы : 6 каналов
Расположение каналов : Front: L C R, Side: L R, LFE
Частота : 48,0 КГц
Частота кадров : 1200,000 кадров/сек (40 SPF)
Метод сжатия : Без потерь
Размер потока : 2,95 Гбайт (6%)
Заголовок : | Дублированный |
Язык : Russian
Default : Да
Forced : Нет

Аудио #2
Идентификатор : 3
Формат : AC-3
Формат/Информация : Audio Coding 3
Идентификатор кодека : A_AC3
Продолжительность : 2 ч. 1 м.
Вид битрейта : Постоянный
Битрейт : 448 Кбит/сек
Каналы : 6 каналов
Расположение каналов : Front: L C R, Side: L R, LFE
Частота : 48,0 КГц
Частота кадров : 31,250 кадров/сек (1536 SPF)
Битовая глубина : 16 бит
Метод сжатия : С потерями
Размер потока : 389 Мбайт (1%)
Заголовок : | MVO, Киномания |
Язык : Russian
ServiceKind/String : Complete Main
Default : Нет
Forced : Нет

Аудио #3
Идентификатор : 4
Формат : DTS
Формат/Информация : Digital Theater Systems
Профиль формата : MA / Core
Идентификатор кодека : A_DTS
Продолжительность : 2 ч. 1 м.
Вид битрейта : Переменный / Постоянный
Битрейт : 3637 Кбит/сек / 1509 Кбит/сек
Каналы : 6 каналов
Расположение каналов : Front: L C R, Side: L R, LFE
Частота : 48,0 КГц
Частота кадров : 93,750 кадра/сек (512 SPF)
Битовая глубина : 24 бит
Метод сжатия : Без потерь / Lossy
Размер потока : 3,09 Гбайт (6%)
Заголовок : | AVO, Гаврилов |
Язык : Russian
Default : Нет
Forced : Нет

Аудио #4
Идентификатор : 5
Формат : DTS
Формат/Информация : Digital Theater Systems
Профиль формата : MA / Core
Идентификатор кодека : A_DTS
Продолжительность : 2 ч. 1 м.
Вид битрейта : Переменный / Постоянный
Битрейт : 3577 Кбит/сек / 1509 Кбит/сек
Каналы : 6 каналов
Расположение каналов : Front: L C R, Side: L R, LFE
Частота : 48,0 КГц
Частота кадров : 93,750 кадра/сек (512 SPF)
Битовая глубина : 24 бит
Метод сжатия : Без потерь / Lossy
Размер потока : 3,04 Гбайт (6%)
Заголовок : | AVO, Сербин |
Язык : Russian
Default : Нет
Forced : Нет

Аудио #5
Идентификатор : 6
Формат : AC-3
Формат/Информация : Audio Coding 3
Идентификатор кодека : A_AC3
Продолжительность : 2 ч. 1 м.
Вид битрейта : Постоянный
Битрейт : 192 Кбит/сек
Каналы : 2 канала
Расположение каналов : Front: L R
Частота : 48,0 КГц
Частота кадров : 31,250 кадров/сек (1536 SPF)
Битовая глубина : 16 бит
Метод сжатия : С потерями
Размер потока : 167 Мбайт (0%)
Заголовок : | MVO, 1+1 / Воля Кино HD |
Язык : Ukrainian
ServiceKind/String : Complete Main
Default : Нет
Forced : Нет

Аудио #6
Идентификатор : 7
Формат : TrueHD
Профиль формата : TrueHD+Atmos / TrueHD
Идентификатор кодека : A_TRUEHD
Продолжительность : 2 ч. 1 м.
Вид битрейта : Переменный
Битрейт : 4498 Кбит/сек
Максимальный битрейт : 8085 Кбит/сек
Каналы : Object Based / 8 каналов
Расположение каналов : Object Based / Front: L C R, Side: L R, Back: L R, LFE
Частота : / 48,0 КГц
Частота кадров : 1200,000 кадров/сек (40 SPF)
Метод сжатия : Без потерь
Задержка видео : 1 мс.
Размер потока : 3,82 Гбайт (7%)
Заголовок : | Original, THD |
Язык : English
Default : Нет
Forced : Нет

Аудио #7
Идентификатор : 8
Формат : DTS
Формат/Информация : Digital Theater Systems
Профиль формата : MA / Core
Идентификатор кодека : A_DTS
Продолжительность : 2 ч. 1 м.
Вид битрейта : Переменный / Постоянный
Битрейт : 3840 Кбит/сек / 1509 Кбит/сек
Каналы : 6 каналов
Расположение каналов : Front: L C R, Side: L R, LFE
Частота : 48,0 КГц
Частота кадров : 93,750 кадра/сек (512 SPF)
Битовая глубина : 24 бит
Метод сжатия : Без потерь / Lossy
Размер потока : 3,22 Гбайт (6%)
Заголовок : | Original, MA |
Язык : English
Default : Нет
Forced : Нет

Аудио #8
Идентификатор : 9
Формат : AC-3
Формат/Информация : Audio Coding 3
Идентификатор кодека : A_AC3
Продолжительность : 2 ч. 1 м.
Вид битрейта : Постоянный
Битрейт : 448 Кбит/сек
Каналы : 6 каналов
Расположение каналов : Front: L C R, Side: L R, LFE
Частота : 48,0 КГц
Частота кадров : 31,250 кадров/сек (1536 SPF)
Битовая глубина : 16 бит
Метод сжатия : С потерями
Задержка видео : 1 мс.
Размер потока : 389 Мбайт (1%)
Заголовок : | Original, AC3 Core |
Язык : English
ServiceKind/String : Complete Main
Default : Нет
Forced : Нет

Аудио #9
Идентификатор : 10
Формат : AC-3
Формат/Информация : Audio Coding 3
Идентификатор кодека : A_AC3
Продолжительность : 2 ч. 1 м.
Вид битрейта : Постоянный
Битрейт : 192 Кбит/сек
Каналы : 2 канала
Расположение каналов : Front: L R
Частота : 48,0 КГц
Частота кадров : 31,250 кадров/сек (1536 SPF)
Битовая глубина : 16 бит
Метод сжатия : С потерями
Задержка видео : 23 мс.
Размер потока : 167 Мбайт (0%)
Заголовок : | Commentary |
Язык : English
ServiceKind/String : Complete Main
Default : Нет
Forced : Нет

Текст #1
Идентификатор : 11
Формат : UTF-8
Идентификатор кодека : S_TEXT/UTF8
Идентификатор кодека/Информация : UTF-8 Plain Text
Продолжительность : 1 ч. 52 м.
Битрейт : 75 бит/сек
ElementCount : 1508
Размер потока : 62,7 Кбайт (0%)
Заголовок : Full
Язык : Russian
Default : Да
Forced : Нет

Текст #2
Идентификатор : 12
Формат : UTF-8
Идентификатор кодека : S_TEXT/UTF8
Идентификатор кодека/Информация : UTF-8 Plain Text
Продолжительность : 1 ч. 52 м.
Битрейт : 47 бит/сек
ElementCount : 1080
Размер потока : 39,1 Кбайт (0%)
Заголовок : Full
Язык : English
Default : Нет
Forced : Нет

Меню
00:00:00.000 : en:Chapter 1
00:08:35.097 : en:Chapter 2
00:15:20.210 : en:Chapter 3
00:20:28.143 : en:Chapter 4
00:29:06.828 : en:Chapter 5
00:36:52.752 : en:Chapter 6
00:43:17.011 : en:Chapter 7
00:49:04.524 : en:Chapter 8
00:56:09.741 : en:Chapter 9
01:02:31.038 : en:Chapter 10
01:08:11.545 : en:Chapter 11
01:16:17.322 : en:Chapter 12
01:22:58.098 : en:Chapter 13
01:30:14.700 : en:Chapter 14
01:39:33.509 : en:Chapter 15
01:50:31.166 : en:Chapter 16
pb.wtf



Скачать Знамение через торрент http://i104.fastpic.ru/big/2018/0411/52/247ac6e4aafcceecce4063c35a5f5952.jpg Скачать фильм Знамение через торрент бесплантно в хорошем качестве Описание: После вскрытия «временной капсулы», в которую в 1959 группа школьников поместила рисунки со своим видением будущего, в руки к ... 10 10 4
Info! Золотая раздача, скачанное не засчитывается.
Торрент: Зарегистрирован [2018-04-11 18:08] · скачан: 18 раз
Статус: √ проверено
Размер: 52.04 GB
Как cкачать? Как скачать Знамение через торрент | qTorrent

% Раздел Тема Автор DL S | L
Фильмы [HD 720p, 1080p] (Хороший звук DUB, MVO) [ 6.86 GB ] Знамение / Knowing [2009 BDRip 720p] DUB + MVO + 2xAVO - KORSAR GoldDust Скачать
3 | 0
Ultra HD (UHD: 2K, 4K, 8K) — видео сверхвысокой чёткости [ 65.41 GB ] Знамение / Knowing [2009 UHD Blu-Ray 2160p] DUB + MVO + 2xAVO [HDR + Dolby Vision] [Custom] sheker187 Скачать
1 | 0
Ultra HD (UHD: 2K, 4K, 8K) — видео сверхвысокой чёткости [ 64.2 GB ] Знамение / Knowing [2009 UHD BDRemux 2160p] DUB + MVO + 2xAVO [HDR + Dolby Vision] sheker187 Скачать
1 | 0
Ultra HD (UHD: 2K, 4K, 8K) — видео сверхвысокой чёткости [ 15.79 GB ] Знамение / Knowing [2009 UHD BDRip 2160p] DUB + MVO + 2xAVO sheker187 Скачать
1 | 0


>> Регистрируемся здесь <<






Отзывы и комментарии о схеме читаем и пишем здесь: ---> Отзывы и комментарии о схеме

Новые благодарочки в телеграм довольных пользователей:
скриншот   скриншот   скриншот   скриншот   скриншот
    Дорогой пользователь! Огромная просьба, поблагодарите релизера, оцените раздачу и оставьте свои комментарий, если Вы скачали Знамение через торрент бесплатно! Внесите свою лепту в развитие PiratBit!
    Комментировать посты могут только пользователи прошедшие не сложную регистрацию
    Показать сообщения:    

    Знамение через торрент
    Скачать бесплатно Знамение
    Знамение скачать торрент
    Знамение смотреть онлайн
    Cкачать фильм Знамение бесплатно
    Знамение скачать торрент в хорошем качестве
    Знамение смотреть онлайн бесплатно в хорошем качестве


    Вы не можете начинать темы
    Вы не можете отвечать на сообщения
    Вы не можете редактировать свои сообщения
    Вы не можете удалять свои сообщения
    Вы не можете голосовать в опросах
    Вы не можете прикреплять файлы к сообщениям
    Вы можете скачивать файлы