Ссылка на приватное зеркало нашего сайта всего за 1$. Внимание количество ограничено!!!

2 сезон

iTunes

1 сезон

1

2 сезон

2 сезон

iTunes

1 сезон

RePack

30

Ultimate

ВАЖНО

ИГРА 18+

pack

RePack

MK11
pack

Забери бонус

RePack

jed

!!Акция!!

Alien_Rage

RePack

fifa19

RePack

Assassins Creed: Odyssey

RePack

NEED FOR SPEED™ PAYBACK

4 сезон

9 сезон

Бесстыжие 9 сезон

Все сериалы

все сериалы на PB.wtf

RePack

FAR CRY 5
  

Охота на воров / Den of Thieves (Кристиан Гьюдгэст) [2018, боевик, триллер, драма, криминал, детектив, приключения, WEB-DL 1080p] DUB [iTunes] pb.wtf

Охота на воров через торрент pb.wtf

Размер: 5.24 GB | Добавлен: 2 года 7 мес. назад | Торрент скачан:1819 раз
Скачать  

11-04-2018 19:29 Охота на воров Скачать торрент  

Охота на воров / Den of Thieves

Год выпуска: 2018
Страна: США
Жанр: боевик, триллер, драма, криминал, детектив

Продолжительность: 02:20:01
Перевод: Дубляж - [Лицензия / iTunes]
Субтитры: Английские
Режиссер: Кристиан Гьюдгэст

В ролях: Джерард Батлер, Джордан Бриджес, Пабло Шрайбер, Ивэн Джонс, О Ши Джексон мл., Фифти Сент, Соня Балморес, Эрик Браден, Брайан Ван Холт, Морис Комт
Описание:
Большой Ник - начальник элитного подразделения полиции Лос-Анджелеса - ежедневно доказывает, что его команда более крутая, чем те, на кого они охотятся. Когда коп узнает, что легендарный и неуловимый вор планирует дерзкое ограбление Федерального резервного банка США, то он решает помешать этому любым способом. И играть по правилам он не привык.
Рейтинг:

MPAA: R - Лицам до 17 лет обязательно присутствие взрослого
Качество: WEB-DL 1080p
Формат: MKV
Видео: AVC, 1912x792 (2.40:1), 4482 kbps, 23,976 fps, 0,123 bpp
Аудио #1: русский / AC3 / 5.1 / 48 kHz / 384 kbps /
Аудио #2: английский / AC3 / 5.1 / 48 kHz / 384 kbps /
Релиз от: ExKinoRay
Общее
Уникальный идентификатор : 126898232348822073816195069629473423828 (0x5F77B5E710F3132B4E6385E9C39B01D4)
Полное имя : H:\Den.of.Thieves.2018.WEB-DL.1080p.ExKinoRay.mkv
Формат : Matroska
Версия формата : Version 4 / Version 2
Размер файла : 5,24 Гбайт
Продолжительность : 2 ч. 20 м.
Общий поток : 5356 Кбит/сек
Название фильма : Den of Thieves 2018 from ExKinoRay
Дата кодирования : UTC 2018-04-11 18:21:31
Программа кодирования : mkvmerge v22.0.0 ('At The End Of The World') 64-bit
Библиотека кодирования : libebml v1.3.5 + libmatroska v1.4.8

Видео
Идентификатор : 1
Формат : AVC
Формат/Информация : Advanced Video Codec
Профиль формата : High@L4
Настройки формата : CABAC / 5 Ref Frames
Параметр CABAC формата : Да
Параметр RefFrames формата : 5 кадров
Идентификатор кодека : V_MPEG4/ISO/AVC
Продолжительность : 2 ч. 20 м.
Битрейт : 4482 Кбит/сек
Ширина : 1912 пикселей
Высота : 792 пикселя
Соотношение сторон : 2,40:1
Режим частоты кадров : Постоянный
Частота кадров : 23,976 (24000/1001) кадра/сек
Цветовое пространство : YUV
Субдискретизация насыщенности : 4:2:0
Битовая глубина : 8 бит
Тип развёртки : Прогрессивная
Бит/(Пиксели*Кадры) : 0.123
Размер потока : 4,38 Гбайт (84%)
Язык : English
Default : Да
Forced : Нет
Цветовой диапазон : Limited
Основные цвета : BT.709
Характеристики трансфера : BT.709
Коэффициенты матрицы : BT.709

Аудио #1
Идентификатор : 2
Формат : AC-3
Формат/Информация : Audio Coding 3
Идентификатор кодека : A_AC3
Продолжительность : 2 ч. 20 м.
Вид битрейта : Постоянный
Битрейт : 384 Кбит/сек
Каналы : 6 каналов
Расположение каналов : Front: L C R, Side: L R, LFE
Частота : 48,0 КГц
Частота кадров : 31,250 кадров/сек (1536 SPF)
Битовая глубина : 16 бит
Метод сжатия : С потерями
Задержка видео : -42 мс.
Размер потока : 385 Мбайт (7%)
Заголовок : iTunes
Язык : Russian
ServiceKind/String : Complete Main
Default : Да
Forced : Да

Аудио #2
Идентификатор : 3
Формат : AC-3
Формат/Информация : Audio Coding 3
Идентификатор кодека : A_AC3
Продолжительность : 2 ч. 20 м.
Вид битрейта : Постоянный
Битрейт : 384 Кбит/сек
Каналы : 6 каналов
Расположение каналов : Front: L C R, Side: L R, LFE
Частота : 48,0 КГц
Частота кадров : 31,250 кадров/сек (1536 SPF)
Битовая глубина : 16 бит
Метод сжатия : С потерями
Задержка видео : -42 мс.
Размер потока : 385 Мбайт (7%)
Заголовок : Original
Язык : English
ServiceKind/String : Complete Main
Default : Нет
Forced : Нет

Текст
Идентификатор : 4
Формат : UTF-8
Идентификатор кодека : S_TEXT/UTF8
Идентификатор кодека/Информация : UTF-8 Plain Text
Заголовок : Full
Язык : English
Default : Нет
Forced : Нет

Меню
00:00:00.000 : en:1
00:09:15.000 : en:2
00:18:58.000 : en:3
00:31:49.000 : en:4
00:38:14.000 : en:5
00:48:11.000 : en:6
00:58:05.000 : en:7
01:08:43.000 : en:8
01:16:24.000 : en:9
01:26:19.000 : en:10
01:41:35.000 : en:11
01:49:43.000 : en:12
02:08:22.000 : en:13
pb.wtf



Скачать Охота на воров через торрент http://i3.imageban.ru/out/2018/04/11/373bc2188b1179bebe9e7a69089433cc.jpg Скачать фильм Охота на воров через торрент бесплантно в хорошем качестве Описание: Большой Ник - начальник элитного подразделения полиции Лос-Анджелеса - ежедневно доказывает, что его команда более крутая, чем ... 9.5 10 30
Info! Золотая раздача, скачанное не засчитывается.
Торрент: Зарегистрирован [2018-04-11 19:29] · скачан: 1 819 раз
Статус: √ проверено
Размер: 5.24 GB
Как cкачать? Как скачать Охота на воров через торрент | qTorrent

% Раздел Тема Автор DL S | L
Фильмы (HD 720p, 1080p) (48-60 fps) [ 5.35 GB ] Охота на воров / Den of Thieves [2018 BDRip - HEVC 1080p 10 bit 60 FPS AVO Яроцкий] dd2d3 Скачать
2 | 0
Фильмы с авторской озвучкой [ 2.63 GB ] Охота на воров / Вертеп разбойников / Логово грабителей / Den of Thieves [2018 BDRip] [Расширенная версия / Unrated Cut] 2x[AVO] killermax2013 Скачать
1 | 0
Фильмы с авторской озвучкой [ 2.47 GB ] Охота на воров / Den of Thieves [2018 BDRip-AVC] [UNRATED] [AVO] killermax2013 Скачать
1 | 0
Фильмы (Blu-ray, BD-Remux, HDDVD) [ 33.81 GB ] Охота на воров / Den of Thieves [2018 BD Remux 1080p] DUB [] [Театральная версия] bober100 Скачать
1 | 0
Фильмы 2018 [DVDrip, WEB-DLRip, HDrip] (DUB, MVO) [ 2.16 GB ] Охота на воров / Den of Thieves [2018 BDRip-AVC] - [] - ExKinoRay Enigma2010 Скачать
2 | 0
Фильмы 2018 [DVDrip, WEB-DLRip, HDrip] (DUB, MVO) [ 2.18 GB ] Охота на воров / Den of Thieves [2018 BDRip] - [] Twi7ter Скачать
1 | 0
Фильмы (Blu-ray, BD-Remux, HDDVD) [ 30.18 GB ] Охота на воров / Den of Thieves [2018 Blu-ray 1080p ] DUB [] [Театральная версия] bober100 Скачать
1 | 0

28-11-2019 20:33  

Отключить всю рекламу на сайте

12-04-2018 03:40 Охота на воров Скачать торрент  

-Lexx-, Спасибо! pb.wtf
K-Lexx- писал(а):

Приятного просмотра.



12-04-2018 13:37 Охота на воров Скачать торрент  

Спасибо за фильм )pb.wtf



12-04-2018 22:37 Охота на воров Скачать торрент  

фильм норм но с дырой в кистью он держит ствол бредpb.wtf



17-04-2018 14:52 Охота на воров Скачать торрент  

xanSS писал(а):

фильм норм но с дырой в кистью он держит ствол бред

это же кино) щас хоть патроны заканчиваются а раньше шмалили до бесконечности без перезарядки )
спасибо LEXXus)pb.wtf



    Дорогой пользователь! Огромная просьба, поблагодарите релизера, оцените раздачу и оставьте свои комментарий, если Вы скачали Охота на воров через торрент бесплатно! Внесите свою лепту в развитие PiratBit!
    Комментировать посты могут только пользователи прошедшие не сложную регистрацию
    Показать сообщения:    

    Охота на воров через торрент
    Скачать бесплатно Охота на воров
    Охота на воров скачать торрент
    Охота на воров смотреть онлайн
    Cкачать фильм Охота на воров бесплатно
    Охота на воров скачать торрент в хорошем качестве
    Охота на воров смотреть онлайн бесплатно в хорошем качестве


    Вы не можете начинать темы
    Вы не можете отвечать на сообщения
    Вы не можете редактировать свои сообщения
    Вы не можете удалять свои сообщения
    Вы не можете голосовать в опросах
    Вы не можете прикреплять файлы к сообщениям
    Вы можете скачивать файлы