Ссылка на приватное зеркало всего за 1$. Внимание количество ограничено!!!

OK

1+1

iTunes

мы

OK

1

WEB-DLRip

Джокер

Пифагор

Ведьмак / The Witcher сериал

iTunes

ПШазам

ОК

Оно 2

iTunes

30
pack

Вам бонус

ВАЖНО

!!Акция!!

Alien_RageХит недели

RePack

Resident Evil 21

ИГРА 18+

pack

RePack

jed

RePack

fifa19

RePack

Assassins Creed: Odyssey

RePack

NEED FOR SPEED™ PAYBACK

4 сезон

9 сезон

Бесстыжие 9 сезон

Все сериалы

все сериалы на PB.wtf

RePack

FAR CRY 5
  

Она придёт сегодня ночью / Tonight She Comes (Мэтт Стюртц) [2016, ужасы, BDRip 720p] MVO [Jaskier] pb.wtf

Она придёт сегодня ночью через торрент pb.wtf

Размер: 3.14 GB | Добавлен: 1 год 9 мес. назад | Торрент скачан:73 раза
Скачать  

12-04-2018 07:20 Она придёт сегодня ночью Скачать торрент  

Она придёт сегодня ночью / Tonight She ComesГод выпуска: 2016
Страна: США
Жанр: ужасы
Продолжительность: 01:21:33
Перевод: Профессиональный (многоголосый) | Jaskier
Субтитры: Английские

Режиссер: Мэтт Стюртц

rating

В ролях:

Фрэнки Рэй, Дженна Макдональд, Адам Хартли, Натан Эввейн, Дал Николь, Брок Рассел, Лариса Уайт, Камиша Коттон

Описание:

Прошлой ночью её похитили. Утром принесли в жертву. Сегодня ночью она оживёт. А все остальные умрут.

Качество: BDRip 720p
Формат: MKV

Видео: MPEG-4 AVC, 4235 Кбит/с, 1280x688
Аудио#1: Русский (AC3, 6 ch, 640 Кбит/с)
Аудио#2: английский (AC3, 6 ch, 640 Кбит/с)
скриншот   скриншот   скриншот  

Общее
Уникальный идентификатор : 211697202758630226050147377096204435549 (0x9F4365F003CE401FBC4B66D70C13405D)
Полное имя : E:\Tonight.She.Comes.2016.BDRip.720p.JASKiER.mkv
Формат : Matroska
Версия формата : Version 2
Размер файла : 3,14 Гбайт
Продолжительность : 1 ч. 21 м.
Общий поток : 5512 Кбит/сек
Дата кодирования : UTC 2018-04-11 19:34:19
Программа кодирования : mkvmerge v7.8.0 ('River Man') 32bit built on Apr 3 2015 12:11:22
Библиотека кодирования : libebml v1.3.1 + libmatroska v1.4.2

Видео
Идентификатор : 1
Формат : AVC
Формат/Информация : Advanced Video Codec
Профиль формата : High@L4.1
Настройки формата : CABAC / 5 Ref Frames
Параметр CABAC формата : Да
Параметр RefFrames формата : 5 кадров
Идентификатор кодека : V_MPEG4/ISO/AVC
Продолжительность : 1 ч. 21 м.
Битрейт : 4235 Кбит/сек
Ширина : 1280 пикселей
Высота : 688 пикселей
Соотношение сторон : 1,85:1
Режим частоты кадров : Постоянный
Частота кадров : 23,976 (24000/1001) кадра/сек
Цветовое пространство : YUV
Субдискретизация насыщенности : 4:2:0
Битовая глубина : 8 бит
Тип развёртки : Прогрессивная
Бит/(Пиксели*Кадры) : 0.201
Размер потока : 2,35 Гбайт (75%)
Библиотека кодирования : x264 core 152 r2851 ba24899
Настройки программы : cabac=1 / ref=5 / deblock=1:0:0 / analyse=0x3:0x113 / me=umh / subme=8 / psy=1 / psy_rd=1.00:0.00 / mixed_ref=1 / me_range=16 / chroma_me=1 / trellis=2 / 8x8dct=1 / cqm=0 / deadzone=21,11 / fast_pskip=0 / chroma_qp_offset=-2 / threads=12 / lookahead_threads=2 / sliced_threads=0 / nr=0 / decimate=1 / interlaced=0 / bluray_compat=0 / constrained_intra=0 / bframes=3 / b_pyramid=2 / b_adapt=1 / b_bias=0 / direct=1 / weightb=1 / open_gop=0 / weightp=2 / keyint=250 / keyint_min=23 / scenecut=40 / intra_refresh=0 / rc_lookahead=50 / rc=2pass / mbtree=1 / bitrate=4235 / ratetol=1.0 / qcomp=0.60 / qpmin=0 / qpmax=69 / qpstep=4 / cplxblur=20.0 / qblur=0.5 / ip_ratio=1.40 / aq=1:1.00
Язык : English
Default : Да
Forced : Нет

Аудио #1
Идентификатор : 2
Формат : AC-3
Формат/Информация : Audio Coding 3
Идентификатор кодека : A_AC3
Продолжительность : 1 ч. 21 м.
Вид битрейта : Постоянный
Битрейт : 640 Кбит/сек
Каналы : 6 каналов
Расположение каналов : Front: L C R, Side: L R, LFE
Частота : 48,0 КГц
Частота кадров : 31,250 кадров/сек (1536 SPF)
Битовая глубина : 16 бит
Метод сжатия : С потерями
Размер потока : 373 Мбайт (12%)
Заголовок : Jaskier
Язык : Russian
ServiceKind/String : Complete Main
Default : Да
Forced : Нет

Аудио #2
Идентификатор : 3
Формат : AC-3
Формат/Информация : Audio Coding 3
Идентификатор кодека : A_AC3
Продолжительность : 1 ч. 21 м.
Вид битрейта : Постоянный
Битрейт : 640 Кбит/сек
Каналы : 6 каналов
Расположение каналов : Front: L C R, Side: L R, LFE
Частота : 48,0 КГц
Частота кадров : 31,250 кадров/сек (1536 SPF)
Битовая глубина : 16 бит
Метод сжатия : С потерями
Размер потока : 373 Мбайт (12%)
Язык : English
ServiceKind/String : Complete Main
Default : Нет
Forced : Нет

Текст
Идентификатор : 4
Формат : UTF-8
Идентификатор кодека : S_TEXT/UTF8
Идентификатор кодека/Информация : UTF-8 Plain Text
Язык : English
Default : Нет
Forced : Нет

pb.wtf
!bober100 писал(а):

Реклама: Присутствует голосовая.



Скачать Она придёт сегодня ночью через торрент http://i95.fastpic.ru/big/2017/0717/37/a6c86acfe50f87ae6104d27c142b1b37.jpg Скачать фильм Она придёт сегодня ночью через торрент бесплантно в хорошем качестве Описание: Прошлой ночью её похитили. Утром принесли в жертву. Сегодня ночью она оживёт. А все остальные ... 6.3 10 8
Торрент: Зарегистрирован [2018-04-12 07:20] · скачан: 73 раз
Статус: T временная
Размер: 3.14 GB
Как cкачать? Как скачать Она придёт сегодня ночью через торрент | qTorrent

% Раздел Тема Автор DL S | L
Фильмы (Blu-ray, BD-Remux, HDDVD) [ 17.54 GB ] Она придёт сегодня ночью / Tonight She Comes [2016 BD Remux 1080р] MVO [Jaskier] bober100 Скачать
1 | 0
T Фильмы (мультфильмы) cо спонсором показа (Новинки AVI/MKV) [ 1.36 GB ] Она придёт сегодня ночью / Tonight She Comes [2016 HDRip] MVO [Jaskier] bober100 Скачать
1 | 0

28-11-2019 20:33  

Отключить всю рекламу на сайте

12-04-2018 11:35 Она придёт сегодня ночью Скачать торрент  

ТВ-3pb.wtf



12-04-2018 11:54 Она придёт сегодня ночью Скачать торрент  

ужасы без сисек это не ужасыpb.wtf



13-04-2018 10:40 Она придёт сегодня ночью Скачать торрент  

Buzun писал(а):

ужасы без сисек это не ужасы

Сиськи есть.Треш есть.Фильм Прекрасенpb.wtf



    Дорогой пользователь! Огромная просьба, поблагодарите релизера, оцените раздачу и оставьте свои комментарий, если Вы скачали Она придёт сегодня ночью через торрент бесплатно! Внесите свою лепту в развитие PiratBit!
    Комментировать посты могут только пользователи прошедшие не сложную регистрацию
    Показать сообщения:    

    Она придёт сегодня ночью через торрент
    Скачать бесплатно Она придёт сегодня ночью
    Она придёт сегодня ночью скачать торрент
    Она придёт сегодня ночью смотреть онлайн
    Cкачать фильм Она придёт сегодня ночью бесплатно
    Она придёт сегодня ночью скачать торрент в хорошем качестве
    Она придёт сегодня ночью смотреть онлайн бесплатно в хорошем качестве


    Вы не можете начинать темы
    Вы не можете отвечать на сообщения
    Вы не можете редактировать свои сообщения
    Вы не можете удалять свои сообщения
    Вы не можете голосовать в опросах
    Вы не можете прикреплять файлы к сообщениям
    Вы можете скачивать файлы