Ссылка на приватное зеркало всего за 1$. Внимание количество ограничено!!!

OK

1+1

iTunes

мы

OK

1

WEB-DLRip

Джокер

Пифагор

Ведьмак / The Witcher сериал

iTunes

ПШазам

ОК

Оно 2

iTunes

30
pack

Вам бонус

ВАЖНО

!!Акция!!

Alien_RageХит недели

RePack

Resident Evil 21

ИГРА 18+

pack

RePack

jed

RePack

fifa19

RePack

Assassins Creed: Odyssey

RePack

NEED FOR SPEED™ PAYBACK

4 сезон

9 сезон

Бесстыжие 9 сезон

Все сериалы

все сериалы на PB.wtf

RePack

FAR CRY 5
  

Четвёртая компания / The 4th Company (Ванесса Арреола, Амир Галван Сервера) [2016, боевик, драма, криминал, WEB-DL 720p] MVO ["Синема УС"] pb.wtf

Четвёртая компания через торрент pb.wtf

Размер: 4.04 GB | Добавлен: 1 год 9 мес. назад | Торрент скачан:81 раз
Скачать  

12-04-2018 07:49 Четвёртая компания Скачать торрент  

Четвёртая компания / The 4th CompanyГод выпуска: 2016
Страна: Мексика, Испания
Жанр: боевик, драма, криминал
Продолжительность: 01:58:33
Перевод: Любительский (многоголосый) | "Синема УС"
Субтитры: отсутствуют

Режиссер: Ванесса Арреола, Амир Галван Сервера

rating

В ролях:

Джон Т. Вудс, Андреа Сикстос, Хосе Росете, Рэй Трикитт, Питер Мендоса, Куэто Йеска, Эмануэл Борриа, Трэвис Ли Эллер, Джонатан Руми

Описание:

Фильм рассказывает о реально существующей в мексиканской тюрьме «Санта Марта» команде по американскому футболу под названием «Псы». Насквозь коррумпированный начальник тюрьмы создаёт из игроков организованную группировку для установления своих порядков внутри тюрьмы и вне её.

Качество: WEB-DL 720p
Формат: MKV

Видео: 4491 Кбит/с, 1280x536
Аудио#1: AC3, 2 ch, 384 Кбит/с
скриншот  скриншот  скриншот  

Общее
Уникальный идентификатор : 176615971014318105803438505727053001269 (0x84DEFFAC555F6E6ABFF6485A7943F235)
Полное имя : E:\торреннты\T.4.C.2016.P.WEB-DL.72Op_KOSHARA.mkv
Формат : Matroska
Версия формата : Version 2
Размер файла : 4,04 Гбайт
Продолжительность : 1 ч. 58 м.
Режим общего битрейта : Переменный
Общий поток : 4877 Кбит/сек
Дата кодирования : UTC 2018-04-11 18:14:35
Программа кодирования : mkvmerge v8.3.0 ('Over the Horizon') 64bit
Библиотека кодирования : libebml v1.3.1 + libmatroska v1.4.2

Видео
Идентификатор : 1
Формат : AVC
Формат/Информация : Advanced Video Codec
Профиль формата : High@L4.1
Настройки формата : CABAC / 4 Ref Frames
Параметр CABAC формата : Да
Параметр RefFrames формата : 4 кадра
Идентификатор кодека : V_MPEG4/ISO/AVC
Продолжительность : 1 ч. 58 м.
Вид битрейта : Переменный
Битрейт : 4491 Кбит/сек
Максимальный битрейт : 5000 Кбит/сек
Ширина : 1280 пикселей
Высота : 536 пикселей
Соотношение сторон : 2,40:1
Режим частоты кадров : Постоянный
Частота кадров : 23,976 (24000/1001) кадра/сек
Стандарт вещания : Component
Цветовое пространство : YUV
Субдискретизация насыщенности : 4:2:0
Битовая глубина : 8 бит
Тип развёртки : Прогрессивная
Бит/(Пиксели*Кадры) : 0.267
Размер потока : 3,64 Гбайт (90%)
Default : Да
Forced : Нет
Цветовой диапазон : Limited
Основные цвета : BT.709
Характеристики трансфера : BT.709
Коэффициенты матрицы : BT.709

Аудио
Идентификатор : 2
Формат : AC-3
Формат/Информация : Audio Coding 3
Идентификатор кодека : A_AC3
Продолжительность : 1 ч. 58 м.
Вид битрейта : Постоянный
Битрейт : 384 Кбит/сек
Каналы : 2 канала
Расположение каналов : Front: L R
Частота : 48,0 КГц
Частота кадров : 31,250 кадров/сек (1536 SPF)
Битовая глубина : 16 бит
Метод сжатия : С потерями
Размер потока : 326 Мбайт (8%)
ServiceKind/String : Complete Main
Default : Да
Forced : Нет

pb.wtf



Скачать Четвёртая компания через торрент http://img12.lostpic.net/2018/04/12/4c11b9c964548be6d8a0e140869616c7.jpg Скачать фильм Четвёртая компания через торрент бесплантно в хорошем качестве Описание: Фильм рассказывает о реально существующей в мексиканской тюрьме «Санта Марта» команде по американскому футболу под названием ... 7.8 10 4
Торрент: Зарегистрирован [2018-04-12 07:49] · скачан: 81 раз
Статус: T временная
Размер: 4.04 GB
Как cкачать? Как скачать Четвёртая компания через торрент | qTorrent

% Раздел Тема Автор DL S | L
T Фильмы (мультфильмы) cо спонсором показа (Новинки AVI/MKV) [ 1.46 GB ] Четвёртая компания / The 4th Company [2016 WEB-DLRip] MVO ["Синема УС"] bober100 Скачать
1 | 0

28-11-2019 20:33  

Отключить всю рекламу на сайте

12-04-2018 11:34 Четвёртая компания Скачать торрент  

Пожалуй пройду мимо, хотя задумка неплохая.pb.wtf



12-04-2018 17:03 Четвёртая компания Скачать торрент  

fanta86 писал(а):

Пожалуй пройду мимо, хотя задумка неплохая.

поражаюсь с таких недоумков.... мое мнение - это топ нэтфликса, прям шедевр!pb.wtf



    Дорогой пользователь! Огромная просьба, поблагодарите релизера, оцените раздачу и оставьте свои комментарий, если Вы скачали Четвёртая компания через торрент бесплатно! Внесите свою лепту в развитие PiratBit!
    Комментировать посты могут только пользователи прошедшие не сложную регистрацию
    Показать сообщения:    

    Четвёртая компания через торрент
    Скачать бесплатно Четвёртая компания
    Четвёртая компания скачать торрент
    Четвёртая компания смотреть онлайн
    Cкачать фильм Четвёртая компания бесплатно
    Четвёртая компания скачать торрент в хорошем качестве
    Четвёртая компания смотреть онлайн бесплатно в хорошем качестве


    Вы не можете начинать темы
    Вы не можете отвечать на сообщения
    Вы не можете редактировать свои сообщения
    Вы не можете удалять свои сообщения
    Вы не можете голосовать в опросах
    Вы не можете прикреплять файлы к сообщениям
    Вы можете скачивать файлы